<?xml version="1.0" standalone="no"?>
<!DOCTYPE svg PUBLIC "-//W3C//DTD SVG 1.1//EN" "http://www.w3.org/Graphics/SVG/1.1/DTD/svg11.dtd" >
<svg xmlns="http://www.w3.org/2000/svg">
<metadata>Generated by IcoMoon</metadata>
<defs>
<font id="icomoon" horiz-adv-x="512">
<font-face units-per-em="512" ascent="480" descent="-32" />
<missing-glyph horiz-adv-x="512" />
<glyph unicode="&#x20;" d="" horiz-adv-x="256" />
<glyph unicode="&#xe600;" d="M512.364 350.592c0 29.010-24.135 52.608-53.145 52.608-28.999 0-51.835-23.598-51.835-52.608 0-25.513 17.577-46.827 43.177-51.589v-64.763h-184.32v64.763c20.48 4.761 42.137 26.076 42.137 51.589 0 29.010-23.726 52.608-52.731 52.608-29.010 0-52.449-23.598-52.449-52.608 0-25.513 16.957-46.827 42.557-51.589v-64.763h-184.315v64.763c25.6 4.761 43.203 26.076 43.203 51.589 0 29.010-23.194 52.608-52.199 52.608-29.005 0-53.248-23.598-53.248-52.608 0-25.513 16.164-46.827 41.764-51.589v-148.93c-25.6-4.762-41.564-26.082-41.564-51.599 0-29 24.018-52.598 53.023-52.598 29.005 0 52.019 23.598 52.019 52.598 0 25.518-17.392 46.838-42.992 51.599v63.688h184.32v-63.688c-25.6-4.762-42.624-26.082-42.624-51.599 0-29 23.481-52.598 52.485-52.598 29 0 52.813 23.598 52.813 52.598 0 25.518-21.714 46.838-42.194 51.599v63.688h192.446c5.622 0 12.349 5.709 12.349 11.335v73.906c20.48 4.762 41.324 26.076 41.324 51.59v0zM223.293 350.592c0 17.767 14.448 32.22 32.215 32.22s32.215-14.454 32.215-32.22c0-17.761-14.449-32.215-32.215-32.215-17.767 0-32.215 14.454-32.215 32.215v0zM20.623 350.592c0 17.767 14.454 32.22 32.215 32.22s32.215-14.454 32.215-32.22c0-17.761-14.454-32.215-32.215-32.215-17.761 0.005-32.215 14.454-32.215 32.215zM85.053 98.468c0-17.761-14.454-32.21-32.215-32.21-17.761 0-32.215 14.449-32.215 32.21 0 17.772 14.454 32.22 32.215 32.22 17.761 0 32.215-14.449 32.215-32.22zM287.724 98.468c0-17.761-14.449-32.21-32.215-32.21-17.766 0-32.215 14.449-32.215 32.21 0 17.772 14.448 32.22 32.215 32.22 17.767 0 32.215-14.449 32.215-32.22zM458.685 318.382c-17.767 0-32.215 14.454-32.215 32.215 0 17.767 14.448 32.22 32.215 32.22 17.761 0 32.21-14.454 32.21-32.22 0-17.766-14.449-32.215-32.21-32.215zM423.295 79.815l-9.739-35.101h-31.855l41.594 136.752h40.579l42.608-136.752h-33.478l-10.551 35.101h-39.159zM457.99 102.945l-8.522 29.014c-2.435 8.116-4.87 18.26-6.899 26.377h-0.406c-2.029-8.115-4.058-18.464-6.29-26.377l-8.115-29.014h30.231z" />
<glyph unicode="&#xe601;" d="M158.327 423.005v-130.090c-1.107 0.153-2.231 0.277-3.399 0.277-10.66 0-19.302-6.868-19.302-15.346h22.695v-253.388c0 0 9.237-42.228 46.188-42.228h108.878c36.951 0 46.188 42.228 46.188 42.228v253.383h24.676c0 8.484-8.637 15.346-19.302 15.346-1.882 0-3.661-0.283-5.373-0.688v130.499c-7.911 30.35-49.679 40.912-49.679 40.912h-101.889c0 0.005-41.763-10.563-49.679-40.907h-0.001zM168.883 94.407v174.864h7.916c0 0 41.572-104.263 0-174.864h-7.916zM185.375 46.899l15.178 71.262h119.435l16.493-71.262c0 0-65.321-27.714-151.106 0v0zM349.683 269.271v-174.864h-7.916c-41.572 70.602 0 174.864 0 174.864h7.916zM343.087 316.784l-19.139-65.997h-128.672l-18.478 65.997c75.882 36.946 166.288 0 166.288 0zM343.087 426.978c0-6.934-8.129-12.548-18.145-12.548-10.033 0-18.156 5.614-18.156 12.548 0 6.917 8.123 12.531 18.156 12.531 10.017 0 18.145-5.613 18.145-12.531zM213.090 426.978c0-6.934-8.124-12.548-18.145-12.548s-18.15 5.614-18.15 12.548c0 6.917 8.124 12.531 18.15 12.531 10.028 0 18.145-5.613 18.145-12.531zM357.43 272.706l59.082-95.905-5.444-3.353-59.082 95.904 5.443 3.353zM159.472 272.688l5.444-3.354-59.093-95.904-5.444 3.354 59.093 95.904z" horiz-adv-x="528" />
<glyph unicode="&#xe602;" d="M241.822 86.928v-93.327h28.355v93.327c-5.442 1.741-10.214 4.080-14.178 6.948-3.947-2.873-8.74-5.212-14.178-6.948zM369.787 210.478c2.765 18.028 2.765 47.81-18.027 51.287 4.168 24.238-5.524 65.833-32.538 69.986-2.791 28.421-9.728 56.136-29.814 60.954 6.231 21.488-7.916 61.696-33.408 61.696s-39.629-40.207-33.403-61.691c-20.086-4.818-27.003-32.532-29.778-60.954-27.029-4.152-36.731-45.742-32.573-69.986-20.787-3.471-20.787-33.254-18.018-51.287-18.017 0-33.27-33.93-9.697-53.351-9.374-11.387-7.746-45.43 31.774-45.43 1.367 0 2.786 0.062 4.26 0.144 3.917-13.066 25.738-20.368 47.14-20.368 9.298 0 18.504 1.362 26.132 4.25 5.913 2.217 10.864 5.351 14.178 9.401 3.328-4.050 8.264-7.183 14.178-9.401 7.634-2.887 16.839-4.25 26.132-4.25 21.401 0 43.213 7.301 47.14 20.368 1.459-0.098 2.898-0.144 4.255-0.144 39.531 0 41.154 34.053 31.78 45.43 23.547 19.415 8.294 53.346-9.712 53.346z" />
<glyph unicode="&#xe603;" d="M320.108 347.591c0-14.019 11.397-25.416 25.416-25.416 14.039 0 25.442 11.402 25.442 25.416s-11.402 25.467-25.442 25.467c-14.024-0.005-25.416-11.453-25.416-25.467zM355.707 347.591c0-5.576-4.582-10.112-10.183-10.112-5.581 0-10.117 4.536-10.117 10.112 0 5.627 4.536 10.137 10.117 10.137 5.601 0 10.183-4.516 10.183-10.137zM321.925 432.86c59.976-0.026 108.912-48.896 108.912-108.898 0-4.244 3.471-7.664 7.639-7.664 4.27 0 7.664 3.415 7.664 7.664 0 68.465-55.762 124.17-124.221 124.17-4.245 0-7.664-3.394-7.664-7.613s3.425-7.659 7.67-7.659zM321.925 398.567c41.129 0 74.624-33.495 74.624-74.624 0-4.219 3.44-7.639 7.634-7.639 4.245 0 7.664 3.415 7.664 7.664 0 49.572-40.356 89.928-89.923 89.928-4.245 0-7.664-3.42-7.664-7.639 0-4.244 3.42-7.69 7.664-7.69zM449.904 86.487l-176.302 176.317 35.349 35.41c3.031 2.985 3.031 7.859 0 10.813-2.985 2.959-7.808 2.959-10.772 0l-35.374-35.41-176.313 176.292c-4.147 4.147-10.261 5.555-15.764 3.661-5.458-1.843-9.482-6.743-10.209-12.514-13.727-105.595 21.438-209.177 96.379-284.185 7.25-7.255 14.792-13.993 22.625-20.47l-45.256-122.183c-1.772-4.705-1.065-9.943 1.792-14.065 2.867-4.101 7.572-6.553 12.544-6.553h135.173c0.098 0 0.292 0 0.292 0 8.51 0 15.278 6.841 15.278 15.278 0 2.959-0.773 5.673-2.212 8.002l-23.634 64.025c38.794-15.084 80.363-23.235 123.367-23.235v0c14.72 0 29.584 0.967 44.211 2.841 5.77 0.748 10.644 4.777 12.467 10.235 1.935 5.509 0.507 11.618-3.64 15.739zM261.837 24.207h-91.264l34.416 92.892c9.411-6.477 19.133-12.514 29.127-17.971l27.719-74.921zM396.866 88.279v0c-82.534 0-160.082 32.041-218.358 90.245-60.513 60.513-92.478 141.609-90.174 226.299l316.437-316.472c-2.647-0.021-5.294-0.072-7.906-0.072z" />
<glyph unicode="&#xe604;" d="M342.090 301.375h-180.219l-36.819-84.781h-35.084v-96.785h28.593v-21.954c0-10.94 8.864-19.798 19.797-19.798s19.798 8.863 19.798 19.798v21.954h184.94v-21.954c0-10.94 8.863-19.798 19.798-19.798s19.791 8.863 19.791 19.798v21.954h28.416v96.779h-34.025l-34.986 84.787zM150.267 149.765c-3.123-1.843-6.781-2.964-10.735-2.964-11.258 0-20.383 8.67-20.383 19.37 0 10.695 9.125 19.37 20.383 19.37 0.518 0 1.001-0.108 1.507-0.142 10.541-0.745 18.875-9.029 18.875-19.228 0-6.94-3.874-12.982-9.649-16.407zM186.533 263.771h130.395l11.719-28.376h-154.436l12.322 28.376zM362.735 146.802c-3.755 0-7.231 1.041-10.263 2.725-6.024 3.362-10.115 9.523-10.115 16.645 0 10.695 9.125 19.37 20.377 19.37 0.256 0 0.495-0.063 0.751-0.074 10.906-0.375 19.632-8.852 19.632-19.303 0-10.695-9.125-19.365-20.384-19.365zM0 412.735v-328.71h45.398v283.313h421.205v-284.052h45.398v329.449z" />
<glyph unicode="&#xe605;" d="M203.233 235.469c-11.315-1.178-35.676 7.557-55.101 21.555-20.777 15.012-33.956 13.077-41.001 4.639-2.724-3.205-38.523-49.009-6.462-122.051 32.061-73.031 87.357-73.011 111.022-60.928 32.942 16.845 43.919 67.185 47.339 90.942-5.335-0.154-10.823 0.461-16.24 1.935-28.099 7.711-45.138 35.769-39.557 63.908zM295.096 267.213c2.775 10.117 23.695 28.426 46.961 38.882 23.378 10.486 28.283 22.876 24.525 33.239-1.423 3.922-23.204 57.815-102.482 66.57-79.298 8.745-106.895-39.127-108.278-65.68-1.863-36.741 35.779-71.209 54.763-86.19 12.565 20.153 37.263 30.567 61.348 23.982 8.724-2.375 16.384-6.738 22.64-12.462 0.205 0.615 0.409 1.178 0.522 1.659zM408.965 256.215c-31.437 20.367-81.377 4.055-103.301-4.803 6.676-12.135 8.858-26.768 4.905-41.175-4.976-18.166-18.483-31.734-35-37.509 0.185-0.205 0.358-0.42 0.522-0.594 7.404-7.465 12.779-34.755 10.219-60.089-2.622-25.498 5.663-35.963 16.497-37.868 4.096-0.717 61.696-8.827 108.944 55.46 47.186 64.286 19.527 112.128-2.786 126.577zM194.417-8.387c-107.028 29.317-177.357 126.341-177.357 232.223v0c0 21.023 2.775 42.414 8.602 63.652v0c29.317 107.111 126.331 177.479 232.213 177.479v0c21.043 0 42.425-2.775 63.662-8.591v0c107.018-29.296 177.357-126.3 177.357-232.222v0c0-21.053-2.775-42.466-8.601-63.754v0c-29.317-107.038-126.32-177.377-232.212-177.377v0c-21.033 0.010-42.404 2.786-63.662 8.591v0zM44.933 282.225c-5.335-19.507-7.885-39.097-7.885-58.378v0c0-97.055 64.481-186.112 162.642-212.921v0c19.517-5.346 39.096-7.895 58.389-7.895v0c97.055 0 186.071 64.502 212.91 162.662v0c5.356 19.538 7.895 39.178 7.895 58.471v0c0 97.086-64.502 186.102-162.642 212.93v0c-19.497 5.335-39.096 7.885-58.389 7.885v0c-97.024-0.020-186.061-64.522-212.921-162.755v0zM268.002 268.544c-23.665 6.482-48.097-7.454-54.579-31.129-6.471-23.685 7.465-48.107 31.13-54.59 23.664-6.471 48.108 7.465 54.589 31.14 6.482 23.675-7.465 48.118-31.14 54.579zM273.357 221.010c-2.58-9.442-12.319-15.002-21.75-12.401-9.431 2.58-14.981 12.308-12.4 21.739 2.57 9.431 12.309 14.992 21.739 12.411 9.452-2.59 14.991-12.309 12.411-21.75z" />
<glyph unicode="&#xe606;" d="M394.035 244.352h-23.45v89.037c0 63.309-51.303 114.611-114.611 114.611s-114.585-51.303-114.585-114.611v-89.037h-23.424c-11.52 0-20.838-9.319-20.838-20.838v-199.68c0-11.495 9.319-20.813 20.838-20.813h276.070c11.52 0 20.839 9.344 20.839 20.813v199.68c0 11.52-9.318 20.839-20.839 20.839v0zM279.271 63.795h-46.541l11.776 69.376c-9.6 4.352-16.306 13.978-16.306 25.216 0 15.334 12.416 27.776 27.776 27.776s27.776-12.442 27.776-27.776c0-11.111-6.579-20.634-16-25.063l11.519-69.53zM326.298 244.352h-140.621v82.304c0 38.835 31.488 70.323 70.323 70.323s70.298-31.462 70.298-70.323l0-82.304z" />
<glyph unicode="&#xe607;" d="M454.707 190.562h-336.891v186.855c0 33.003 13.757 34.949 20.368 35.886 12.642 1.838 22.62-9.37 26.378-18.576-13.343-12.088-17.428-32.071-8.571-48.655 1.607-3.021 4.695-4.731 7.89-4.731 1.423 0 2.862 0.338 4.198 1.054l55.194 29.461c2.094 1.116 3.655 3.010 4.347 5.279 0.691 2.268 0.446 4.721-0.671 6.809-7.010 13.128-20.608 21.289-35.512 21.289-3.799 0-7.572-0.615-11.223-1.68-7.419 16.226-24.233 30.315-44.534 27.448-23.716-3.353-35.748-21.386-35.748-53.586v-186.855h-44.119c-38.38-0.010-37.412-52.798 0-52.516 5.376 0.041 8.827-3.005 9.585-10.327 2.125-20.567 11.94-49.111 34.55-70.61 5.566-5.294 2.217-10.87 2.217-10.87l-8.356-17.157c-2.156-4.434-0.313-9.784 4.127-11.95 1.26-0.61 2.591-0.901 3.901-0.901 3.318 0 6.492 1.849 8.049 5.028l8.121 16.671c0 0 2.069 6.436 8.294 3.988 10.076-3.963 21.995-5.827 35.82-5.827h187.709c9.887 0 19.057 2.146 28.027 4.664 7.557 2.125 10.296-7.762 10.296-7.762l5.837-11.75c1.562-3.149 4.721-4.966 8.013-4.966 1.337 0 2.688 0.297 3.963 0.932 4.423 2.192 6.231 7.557 4.034 11.976l-8.653 17.423c0 0-2.729 4.459 2.852 9.308 3.005 2.611 6.006 5.361 8.858 8.423 19.338 20.757 28.349 46.274 32.686 64.62 1.413 5.98 2.027 8.93 8.95 9.088 35.927 0.819 37.611 52.505 0.015 52.516zM205.322 382.541l-36.132-19.292c-0.666 8.581 3.681 17.162 11.75 21.473 3.282 1.746 6.81 2.637 10.491 2.637 5.145 0 10.014-1.746 13.891-4.818zM454.707 155.925h-10.634c-10.803 0.179-12.565-10.291-14.29-16.128-3.298-11.151-6.876-38.671-29.798-63.273-13.942-14.971-30.812-22.553-50.14-22.553h-187.709c-69.878 0-76.862 62.29-80.276 89.457-0.707 5.616-1.29 11.556-11.346 12.498h-14.69c-13.241-0.010-13.241 16.752 0 16.758h398.884c11.336-0.005 12.457-16.768 0-16.758zM402.34 145.111c-4.762 1.3-9.666-1.546-10.947-6.308-0.092-0.348-9.759-35.082-42.721-53.151-4.337-2.37-5.918-7.808-3.548-12.135 1.479-2.709 4.158-4.337 7.010-4.608 1.721-0.164 3.497 0.169 5.125 1.060 39.577 21.699 50.928 62.459 51.389 64.185 1.28 4.782-1.541 9.687-6.308 10.957z" />
<glyph unicode="&#xe608;" d="M420.9 346.020c-42.553 42.532-99.097 65.961-159.257 65.961-60.16 0-116.716-23.429-159.257-65.961-42.537-42.547-65.966-99.102-65.966-159.268 0-29.573 5.653-58.332 16.784-85.463 1.623-3.947 6.144-5.837 10.091-4.219s5.842 6.144 4.219 10.096c-3.159 7.7-5.842 15.545-8.044 23.511 8.499-19.983 25.492-35.303 46.295-41.149v-16.031h37.698v172.534h-37.698v-16.025c-29.998-8.443-52.066-36.542-52.194-69.954-1.116 8.812-1.69 17.715-1.69 26.711 0 56.038 21.822 108.708 61.44 148.337 39.619 39.613 92.293 61.435 148.327 61.435 56.034 0 108.702-21.822 148.332-61.435 39.603-39.639 61.419-92.308 61.419-148.347 0-6.082-0.272-12.109-0.784-18.11-3.517 29.563-24.279 53.653-51.666 61.353v16.025h-37.699v-172.539h37.699v16.031c18.192 5.11 33.449 17.459 42.685 33.828-1.808-5.688-3.85-11.341-6.154-16.901-1.628-3.942 0.236-8.458 4.178-10.102 0.962-0.409 1.976-0.594 2.959-0.594 3.036 0 5.909 1.808 7.147 4.772 11.351 27.366 17.101 56.377 17.101 86.236 0 60.165-23.424 116.721-65.966 159.268zM261.642 267.223l-108.856-88.269h18.401v-105.472h72.305v52.844h36.291v-52.844h72.827v105.472h17.874z" />
<glyph unicode="&#xe609;" d="M250.137 377.222l-51.946-30.477-0.32-22.328-68.581-79.055c-5.841-6.734-5.12-16.926 1.615-22.772 6.734-5.838 16.935-5.123 22.773 1.618l43.48 50.113-1.047-73.35c0-8.607 5.852-15.823 13.792-17.938-0.15-0.911-0.246-1.833-0.246-2.784v-156.010l-21.893-5.188c-9.569 0-17.325-7.756-17.325-17.331 0-9.563 7.756-8.027 17.325-8.027h37.439c0.585-0.060 1.177-0.094 1.779-0.094 9.571 0 17.328 7.762 17.328 17.325v169.324c0 0.829-0.079 1.64-0.192 2.441 8.701 1.547 15.313 9.134 15.313 18.281l9.289 157.665c0 10.264-8.319 18.586-18.584 18.586zM262.814 418.57c0-19.789-16.042-35.832-35.832-35.832s-35.832 16.043-35.832 35.832c0 19.79 16.042 35.832 35.832 35.832 19.79 0 35.832-16.042 35.832-35.832zM32.739 377.22l51.946-30.475 0.32-22.328 68.581-79.055c5.841-6.734 5.119-16.926-1.615-22.772-6.734-5.838-16.931-5.123-22.773 1.613l-43.475 50.118 1.046-73.35c0-8.607-5.855-15.823-13.789-17.938 0.147-0.911 0.243-1.833 0.243-2.784v-156.010l21.893-5.188c9.569 0 17.325-7.756 17.325-17.331 0-9.563-7.756-8.027-17.325-8.027h-37.444c-0.586-0.060-1.179-0.094-1.779-0.094-9.569 0-17.325 7.762-17.325 17.325v169.324c0 0.829 0.079 1.64 0.193 2.441-8.7 1.547-15.313 9.134-15.313 18.281l-9.294 157.665c0 10.264 8.322 18.584 18.586 18.584zM91.725 418.567c0-19.789-16.043-35.832-35.832-35.832s-35.832 16.043-35.832 35.832c0 19.789 16.043 35.832 35.832 35.832 19.789 0 35.832-16.043 35.832-35.832z" horiz-adv-x="283" />
<glyph unicode="&#xe60a;" d="M422.313 235.627v40.776l55.966-55.987-55.966-55.982v40.474h-326.942v-40.474l-55.967 55.982 55.967 55.993v-40.775h326.942zM33.802 315.638v-184.341zM28.682 315.638v-184.341h10.24v184.341h-10.24zM483.881 316.201v-184.336zM478.761 316.201v-184.336h10.24v184.336h-10.24z" />
<glyph unicode="&#xe60b;" d="M512.364 350.592c0 29.010-24.135 52.608-53.145 52.608-29 0-51.835-23.598-51.835-52.608 0-25.513 17.577-46.827 43.177-51.589v-64.763h-184.32v64.763c20.48 4.761 42.137 26.076 42.137 51.589 0 29.010-23.726 52.608-52.731 52.608-29.010 0-52.45-23.598-52.45-52.608 0-25.513 16.958-46.827 42.558-51.589v-64.763h-184.315v64.763c25.6 4.761 43.203 26.076 43.203 51.589 0 29.010-23.194 52.608-52.199 52.608s-53.248-23.598-53.248-52.608c0-25.513 16.164-46.827 41.764-51.589v-148.931c-25.6-4.762-41.564-26.082-41.564-51.599 0-29 24.018-52.598 53.023-52.598 29.005 0 52.019 23.598 52.019 52.598 0 25.518-17.392 46.838-42.992 51.599v63.688h184.32v-63.688c-25.6-4.762-42.624-26.082-42.624-51.599 0-29 23.481-52.598 52.485-52.598 29 0 52.813 23.598 52.813 52.598 0 25.518-21.714 46.838-42.194 51.599v63.688h192.445c5.622 0 12.349 5.709 12.349 11.335v73.907c20.48 4.762 41.324 26.076 41.324 51.589zM223.293 350.592c0 17.767 14.448 32.22 32.215 32.22s32.215-14.454 32.215-32.22c0-17.761-14.449-32.215-32.215-32.215s-32.215 14.454-32.215 32.215zM20.623 350.592c0 17.767 14.454 32.22 32.215 32.22s32.215-14.454 32.215-32.22c0-17.761-14.454-32.215-32.215-32.215-17.761 0.005-32.215 14.454-32.215 32.215zM85.053 98.468c0-17.762-14.454-32.21-32.215-32.21s-32.215 14.449-32.215 32.21c0 17.772 14.454 32.22 32.215 32.22 17.761 0 32.215-14.449 32.215-32.22zM287.724 98.468c0-17.762-14.449-32.21-32.215-32.21s-32.215 14.449-32.215 32.21c0 17.772 14.448 32.22 32.215 32.22s32.215-14.449 32.215-32.22zM458.685 318.382c-17.767 0-32.215 14.454-32.215 32.215 0 17.767 14.449 32.22 32.215 32.22 17.762 0 32.21-14.454 32.21-32.22 0-17.766-14.449-32.215-32.21-32.215z" />
<glyph unicode="&#xe60c;" d="M461.728 161.203v-53.587c0-0.743-0.058-1.485-0.147-2.208h-31.629c-0.109 0.717-0.154 1.466-0.154 2.208v26.643h-354.016v-27.968c0-0.295-0.013-0.595-0.032-0.883h-29.216c-0.019 0.301-0.032 0.589-0.032 0.883v222.259c0 8.064 6.573 14.631 14.663 14.631 4.032 0 7.68-1.632 10.336-4.295 2.656-2.63 4.288-6.298 4.288-10.329v-167.68l385.939 0.327zM170.477 241.018c0-20.582-16.685-37.267-37.267-37.267s-37.267 16.685-37.267 37.267c0 20.582 16.685 37.267 37.267 37.267 20.582 0 37.267-16.685 37.267-37.267zM461.536 241.85v-52.474h-275.091v52.474c0 12.205 9.888 22.099 22.093 22.099h230.905c12.205 0 22.093-9.894 22.093-22.099z" />
<glyph unicode="&#xe60d;" d="M151.624 204.032c-5.504 0-9.969-4.47-9.969-9.948 0-5.524 4.464-9.989 9.969-9.989 5.483 0 9.948 4.464 9.948 9.989 0.005 5.478-4.464 9.948-9.948 9.948zM74.332 63.467l18.376-63.207h414.95c0 0 0 25.134 0 63.207h-433.326zM507.653 68.664c0 120.177 0 357.611 0 367.293 0 12.995-11.248 9.543-11.248 9.543l-292.823-0.020c0 0-12.119 0.87-49.377-13.85s-149.863-127.339-149.863-127.339l68.485-235.627h434.826zM152.924 176.092h-62.372c-7.675 0-14.254 4.628-17.096 11.248h53.033c3.348 0 6.073 2.719 6.073 6.052 0 3.349-2.719 6.072-6.073 6.072h-53.622c2.15 7.921 9.073 13.87 17.684 13.87h62.372c10.276 0 18.621-8.346 18.621-18.642 0-10.276-8.345-18.601-18.621-18.601zM213.084 417.991c66.719 0 269.43 0 269.43 0v-183.67h-423.618l-21.663 60.647c0 0 109.133 123.024 175.851 123.024z" />
<glyph unicode="&#xe60e;" d="M336.481 102.605c-7.88 2.893-16.63-1.173-19.517-9.052-8.519-23.27-24.853-43.449-45.947-56.812 0 0 0 0-0.026-0.021-10.599-6.733-22.216-11.623-34.493-14.49v-0.010h-0.011c-8.473-2.028-17.25-3.052-26.066-3.052-11.596 0-23.091 1.772-34.125 5.207-9.232 2.923-18.139 7.076-26.49 12.344-21.576 13.712-38.088 34.462-46.48 58.434 0 0.021 0 0.021 0 0.021-2.601 7.466-4.45 15.406-5.442 23.548 0 0.021-0.010 0.031-0.010 0.031v0.021c-0.589 4.741-0.88 9.411-0.88 13.829 0 19.963 5.289 39.639 15.319 56.878 0.010 0 0.010 0.010 0.010 0.031 4.9 8.443 10.808 16.158 17.572 22.963 5.934 5.965 5.888 15.601-0.061 21.524-5.975 5.929-15.6 5.868-21.535-0.066-8.566-8.643-16.056-18.432-22.282-29.107 0-0.041 0-0.041-0.020-0.062-12.718-21.878-19.436-46.827-19.436-72.161 0-5.663 0.374-11.582 1.121-17.552 0-0.010 0-0.010 0-0.010 0-0.010 0-0.010 0-0.010s0 0 0-0.021v-0.021c1.264-10.312 3.589-20.358 6.907-29.875h0.020c10.645-30.423 31.575-56.714 58.89-74.102 0 0 0 0 0.020-0.010 0.010 0 0.010 0 0.010 0 10.567-6.661 21.883-11.95 33.618-15.647h0.020c0.020-0.010 0.020-0.010 0.020-0.010 14.003-4.373 28.544-6.594 43.233-6.594 11.202 0 22.328 1.305 33.106 3.861 0 0 0.041 0 0.061 0.010 15.518 3.687 30.244 9.865 43.699 18.381 0.010 0.010 0.031 0.031 0.031 0.031 26.721 16.952 47.381 42.526 58.219 72.043 2.893 7.911-1.168 16.63-9.058 19.527v0zM231.798 421.97c0-17.767-14.403-32.169-32.169-32.169s-32.169 14.403-32.169 32.169c0 17.766 14.403 32.169 32.169 32.169s32.169-14.403 32.169-32.169zM432.041 47.734l-29.031 142.192c0 0.323 0.087 0.615 0.087 0.927-0.261 13.721-11.567 24.622-25.283 24.377h-0.44c-0.144 0-0.272 0-0.409 0l-120.617-2.135-8.161 108.508c-0.958 13.675-17.31 24.433-39.885 24.433-19.938 0-38.83-14.178-37.847-27.853l9.758-141.271c0.558-8.392 5.299-15.488 11.95-19.517 0.020-0.021 0.061-0.021 0.061-0.021 0.425-0.231 0.87-0.461 1.346-0.712 3.733-2.099 7.988-3.349 12.57-3.257l151.454 2.166 25.969-118.462c2.918-13.358 16.138-21.842 29.548-18.908 13.358 2.923 21.847 16.199 18.928 29.531l0.001 0z" />
<glyph unicode="&#xe60f;" d="M585.143 24.894c-10.158-4.067-20.322-8.134-32.51-8.134-24.383 0-40.633 16.255-65.015 16.255-24.377 0-40.632-16.255-65.010-16.255-24.383 0-40.638 16.255-65.015 16.255-24.383 0-40.632-16.255-65.015-16.255-24.383 0-40.632 16.255-65.015 16.255-24.383 0-40.632-16.255-65.015-16.255s-40.632 16.255-65.015 16.255c-24.383 0-40.633-16.255-65.015-16.255-12.188 0-22.346 4.049-32.511 8.116v-48.766c10.152-4.067 20.311-8.11 32.505-8.11 24.383 0 40.632 16.25 65.015 16.25 24.383 0 40.638-16.25 65.015-16.25s40.632 16.25 65.015 16.25c24.383 0 40.638-16.25 65.015-16.25 24.383 0 40.632 16.25 65.015 16.25 24.377 0 40.632-16.25 65.015-16.25 24.377 0 40.632 16.25 65.010 16.25 24.383 0 40.633-16.25 65.015-16.25 12.188 0 22.346 4.061 32.51 8.127v48.766zM585.143 122.413c-10.158-4.061-20.322-8.127-32.51-8.127-24.383 0-40.633 16.25-65.015 16.25-24.377 0-40.632-16.25-65.010-16.25-24.383 0-40.638 16.25-65.015 16.25-24.383 0-40.632-16.25-65.015-16.25-24.383 0-40.632 16.25-65.015 16.25-24.383 0-40.632-16.25-65.015-16.25s-40.632 16.25-65.015 16.25c-24.383 0-40.633-16.25-65.015-16.25-12.188 0-22.346 4.043-32.511 8.11v-48.76c10.158-4.061 20.316-8.11 32.511-8.11 24.383 0 40.632 16.25 65.015 16.25 24.383 0 40.638-16.25 65.015-16.25s40.632 16.25 65.015 16.25c24.383 0 40.638-16.25 65.015-16.25 24.383 0 40.632 16.25 65.015 16.25 24.377 0 40.632-16.25 65.015-16.25 24.377 0 40.632 16.25 65.010 16.25 24.383 0 40.633-16.25 65.015-16.25 12.188 0 22.346 4.061 32.51 8.127v48.76zM97.526 163.046v16.255h162.541v-24.383c10.158-4.061 20.316-8.127 32.51-8.127 5.817 0 11.141 0.959 16.25 2.364v168.304c0 62.739 51.042 113.775 113.781 113.775s113.775-51.042 113.775-113.775c0-13.47 10.907-24.383 24.377-24.383s24.383 10.913 24.383 24.383c0 89.632-72.92 162.541-162.535 162.541-86.888 0-157.86-68.573-162.131-154.413h-162.541c4.195 58.941 53.371 105.647 113.365 105.647 19.404 0 37.637-4.968 53.628-13.587 8.911 13.973 19.591 26.712 31.785 37.847-24.857 15.454-54.061 24.506-85.413 24.506-89.621 0-162.541-72.909-162.541-162.541v-168.299c16.326 4.5 30.199 13.885 48.766 13.885zM97.526 276.827h162.541v-48.76h-162.541v48.76z" horiz-adv-x="585" />
<glyph unicode="&#xe610;" d="M556.922 171.927l-189.786-38.599c-10.175-2.075-22.635-11.185-27.686-20.263l-2.265-4.077c-5.053-9.077-0.856-14.798 9.312-12.745l189.779 38.608c10.176 2.070 22.635 11.189 27.684 20.256l2.271 4.084c5.058 9.084 0.862 14.81-9.309 12.737v0zM370.149 390.845l-38.962-7.935c-10.175-2.067-16.81-12.087-14.74-22.264l39.13-192.414c2.074-10.175 12.093-16.81 22.268-14.747l192.421 39.137c10.175 2.067 16.807 12.087 14.744 22.268l-39.138 192.421c-2.071 10.178-12.087 16.81-22.268 14.735l-153.456-31.201zM144.499 292.755h-71.757c-10.389 0-18.88-8.501-18.88-18.889v-196.351c0-10.389 8.495-18.878 18.88-18.878h196.363c10.378 0 18.88 8.489 18.88 18.878v156.571l24.115-118.586c2.067-10.171 8.084-11.185 13.368-2.248l9.136 15.483c5.284 8.946 7.914 24.586 5.843 34.761l-37.367 183.736c-2.075 10.178-8.084 11.185-13.365 2.244l-9.144-15.476c-5.281-8.942-7.899-24.581-5.838-34.764l1.618-7.943c-2.238 0.938-4.679 1.466-7.241 1.466l-124.611-0.004zM110.462 92.175c-11.969 0-21.659 9.7-21.659 21.653 0 11.965 9.694 21.666 21.659 21.666 11.962 0 21.658-9.7 21.658-21.666 0-11.955-9.697-21.653-21.659-21.653zM110.462 209.7c-11.969 0-21.659 9.699-21.659 21.669 0 11.958 9.694 21.658 21.659 21.658 11.962 0 21.658-9.699 21.658-21.658 0-11.969-9.697-21.669-21.659-21.669zM224.557 253.029c11.969 0 21.666-9.699 21.666-21.658 0-11.969-9.7-21.669-21.666-21.669-11.965 0-21.659 9.699-21.659 21.669 0 11.958 9.694 21.658 21.659 21.658zM224.557 135.488c11.969 0 21.666-9.699 21.666-21.666 0-11.95-9.7-21.652-21.666-21.652-11.965 0-21.659 9.7-21.659 21.652 0 11.969 9.694 21.666 21.659 21.666zM378.169 314.393c-11.962 0-21.658 9.699-21.658 21.662 0 11.959 9.697 21.659 21.658 21.659 11.965 0 21.666-9.7 21.666-21.659 0-11.965-9.7-21.662-21.666-21.662zM450.726 266.106c-11.959 0-21.659 9.7-21.659 21.659 0 11.969 9.7 21.663 21.659 21.663 11.962 0 21.659-9.694 21.659-21.663 0-11.959-9.697-21.659-21.659-21.659v0zM530.025 216.844c-11.969 0-21.658 9.699-21.658 21.658 0 11.962 9.691 21.659 21.658 21.659 11.958 0 21.659-9.697 21.659-21.659s-9.697-21.658-21.659-21.658zM33.791 281.36l-9.276-14.23c-4.087-6.264-7.419-17.507-7.419-24.976v-143.204c0-7.477 4.097-18.14 9.104-23.692l5.908-6.545c5.008-5.552 9.104-3.969 9.104 3.505v206.935c0 7.473-3.339 8.471-7.426 2.206l0.005 0.002z" horiz-adv-x="643" />
<glyph unicode="&#xe611;" d="M302.080 334.080c0-15.553-12.608-28.16-28.16-28.16s-28.16 12.608-28.16 28.16c0 15.553 12.607 28.16 28.16 28.16 15.553 0 28.16-12.607 28.16-28.16zM322.56 285.44c0 8.484-6.882 15.36-15.36 15.36h-66.56c-8.484 0-15.36-6.876-15.36-15.36 0-0.435 0.092-0.85 0.128-1.28-0.071-0.42-0.128-0.845-0.128-1.28v-81.92c0-4.24 3.435-7.68 7.68-7.68s7.68 3.44 7.68 7.68v69.12h5.12v-176.64c0-7.070 5.73-12.8 12.8-12.8s12.8 5.729 12.8 12.8v99.84h5.12v-99.84c0-7.070 5.729-12.8 12.8-12.8s12.8 5.729 12.8 12.8v176.64h5.12v-69.12c0-4.24 3.44-7.68 7.68-7.68s7.68 3.44 7.68 7.68v81.92c0 0.435-0.062 0.86-0.128 1.28 0.036 0.43 0.128 0.845 0.128 1.28zM358.4 249.6v-179.2h-179.2v399.36h-66.56v-486.4h66.56v56.32h209.92v209.92z" />
<glyph unicode="&#xe612;" d="M438.293 151.065v52.834l-156.744 86.871v81.776c0 14.121-11.433 35.758-25.554 35.758-14.106 0-25.543-21.642-25.543-35.758v-81.776l-156.744-86.871v-52.834l156.738 44.288v-89.928l-56.222-38.195v-27.536l81.772 23.086 81.776-23.086v27.536l-56.217 38.195v89.928l156.738-44.288z" />
<glyph unicode="&#xe613;" d="M199.158 261.422c-5.038 15.565-24.837 30.899-17.602 58.465 4.839 18.447 10.343 30.69 10.368 30.776 2.361 6.139 0.839 13.184-3.799 17.628-4.633 4.459-11.392 5.366-16.937 2.288-2.279-1.27-50.918-31.677-43.52-82.243 2.473-16.85 11.536-22.963 20.439-40.986 7.701-15.595-6.39-45.476-15.161-65.515-2.581-5.883-1.49-12.861 2.75-17.557 2.873-3.17 6.784-4.869 10.778-4.869 1.905 0 3.825 0.384 5.657 1.183 24.167 10.517 65.101 45.107 47.027 100.828zM280.555 272.752c-5.038 17.296-24.837 34.334-17.603 64.963 4.839 20.495 10.342 34.099 10.368 34.196 2.355 6.825 0.839 14.649-3.794 19.589-4.634 4.951-11.392 5.965-16.942 2.545-2.279-1.408-50.918-35.195-43.52-91.387 2.468-18.719 11.53-25.513 20.434-45.538 7.706-17.326-6.385-50.534-15.161-72.796-2.585-6.543-1.495-14.29 2.744-19.502 2.873-3.533 6.789-5.422 10.778-5.422 1.905 0 3.825 0.43 5.657 1.316 24.172 11.694 65.101 50.135 47.037 112.036zM363.5 261.422c-5.048 15.565-24.848 30.899-17.603 58.465 4.839 18.447 10.342 30.69 10.363 30.776 2.365 6.139 0.85 13.184-3.789 17.628-4.628 4.459-11.397 5.366-16.942 2.288-2.284-1.27-50.918-31.677-43.525-82.243 2.473-16.85 11.541-22.963 20.444-40.986 7.7-15.595-6.39-45.476-15.166-65.515-2.586-5.883-1.495-12.861 2.75-17.557 2.867-3.17 6.779-4.869 10.772-4.869 1.904 0 3.825 0.384 5.652 1.183 24.171 10.517 65.101 45.107 47.043 100.828zM457.969 176.036c-18.146 70.671-66.668 79.037-69.315 79.36-5.939 0.722-11.627-2.375-14.254-7.71-2.637-5.34-1.603-11.756 2.555-16.010 0.256-0.256 34.381-31.227 29.63-61.962-6.205-40.125-89.57-57.892-150.584-57.892v0 0c-61.015 0-144.389 17.767-150.589 57.887-4.777 30.899 29.415 61.742 29.63 61.968 4.167 4.255 5.191 10.67 2.56 16.010-2.631 5.335-8.325 8.412-14.259 7.71-2.652-0.322-51.175-8.684-69.309-79.36-7.281-28.365-2.821-53.264 13.276-74.014 45.696-58.906 160.327-57.216 185.651-57.216 1.566 0 2.585 0.015 3.036 0.021 0.44-0.005 1.464-0.021 3.031-0.021 0.005 0 0.005 0 0.005 0 25.339 0 139.95-1.685 185.651 57.216 16.098 20.736 20.562 45.645 13.286 74.014z" />
<glyph unicode="&#xe614;" d="M103.495 319.72l240.96 114.2c6.098-2.534 13.066-2.8 19.466 0.266 12.001 5.668 17.137 19.998 11.464 32.066-5.699 11.996-20.065 17.132-32.066 11.397-6.43-3-10.629-8.535-12.529-14.796l-302.092-143.133h-28.698v-351.72h479.985v351.72h-376.49zM72.099 41.067h-16v115.526h16v-115.526zM130.129 41.067h-16v115.526h16v-115.526zM188.194 41.067h-16v115.526h16v-115.526zM246.192 41.067h-16v115.526h16v-115.526zM366.123 41.067c-31.866 0-57.728 25.866-57.728 57.799 0 31.866 25.866 57.728 57.728 57.728 31.897 0 57.764-25.866 57.764-57.728 0-31.938-25.866-57.799-57.764-57.799zM423.885 212.191h-367.786v59.868h367.786v-59.868z" horiz-adv-x="480" />
<glyph unicode="&#xe615;" d="M337.234 402.668c-25.098 0-45.399-20.265-45.399-45.266 0-25.067 20.301-45.333 45.399-45.333 24.97 0 45.271 20.265 45.271 45.333 0 25.001-20.301 45.266-45.271 45.266zM419.231 144.533c-5.13-2.202-11.1 0.327-13.302 5.401l-21.125 88.197-2.903-93.732h-0.072l8.402-154.998c0.533-9.334-6.43-17.398-15.728-18.063-0.435-0.072-0.834-0.072-1.27-0.072-8.801 0-16.302 6.8-16.798 15.734l-19.303 146.263-19.128-146.263c-0.702-8.935-8.135-15.734-16.968-15.734-0.363 0-0.763 0-1.229 0.072-9.272 0.666-16.302 8.729-15.698 18.063l8.264 154.998-2.841 93.732c0 0-56.299-56.734-59.802-58.266-6.129-2.601-13.2 0.272-15.831 6.4l-45.737 99.533 34.667-168.135h-33.459l-10.338-137.6c0-6.599-5.433-12.063-12.001-12.063-6.799 0-12.135 5.463-12.135 12.063l-10.302 137.6h-12.165l-10.302-137.6c0-6.599-5.366-12.063-12.135-12.063-6.6 0-12.001 5.463-12.001 12.063l-10.368 137.6h-33.423l34.631 168.135-45.701-99.533c-2.601-6.128-9.733-9.001-15.867-6.4-6.067 2.601-8.934 9.671-6.267 15.872 0 0 27.166 98.796 39.731 124.534 12.534 25.702 25.067 41.334 72.868 41.334h9.831c47.77 0 60.334-15.632 72.868-41.334 9.201-18.8 26.066-76.467 34.535-106.204 12.17 16.604 28.672 40.002 34.97 53.069 10.599 21.735 26.998 34.8 67.267 34.8h8.202c40.3 0 56.601-13.066 67.267-34.8 10.599-21.601 16.103-109.266 16.103-109.266 2.233-5.269-0.236-11.136-5.406-13.337zM195.569 395.868c0-13-10.998-23.536-24.668-23.536-9.534 0-17.531 5.299-21.632 12.866-9.334-7.67-20.767-12.866-33.767-12.866-13.066 0-24.469 5.202-33.802 12.866-4.101-7.567-12.135-12.866-21.632-12.866-13.666 0-24.668 10.537-24.668 23.536 0 12.964 10.998 23.531 24.668 23.531 1.034 0 1.966-0.466 3.001-0.599-0.368 2.498-1.5 4.731-1.5 7.368 0 29.732 24.13 53.832 53.934 53.832 29.767 0 53.867-24.1 53.867-53.832 0-2.637-1.101-4.869-1.47-7.368 0.999 0.133 1.93 0.599 3 0.599 13.666 0 24.668-10.567 24.668-23.531z" horiz-adv-x="426" />
<glyph unicode="&#xe616;" d="M202.685 152.889c30.94 30.94 81.28 30.94 112.261-0.041l37.433 37.433c-51.584 51.579-135.567 51.62-187.131 0.051l37.438-37.442zM127.58 227.487c72.187 72.187 189.716 72.172 261.939-0.051l37.427 37.427c-92.856 92.856-243.927 92.877-336.768 0.036l37.401-37.412zM52.767 302.3c113.464 113.459 298.087 113.459 411.587-0.036l37.406 37.412c-134.134 134.134-352.297 134.134-486.4 0.036l37.407-37.412zM243.2 84.746h30.72v-102.4h-30.72v102.4zM304.891 89.866c0-25.45-20.63-46.080-46.080-46.080s-46.080 20.63-46.080 46.080c0 25.45 20.631 46.080 46.080 46.080 25.45 0 46.080-20.63 46.080-46.080z" />
<glyph unicode="&#xe617;" d="M255.749 34.176c1.085 1.27 0.599 2.944-0.169 4.306 0.804-1.387 1.331-3.067 0.169-4.306zM330.348 35.922c-0.768-0.87-2.309-1.479-5.017-1.69-0.461-0.051-1.132-0.051-1.945-0.108-2.099-0.057-5.325-0.108-9.426-0.205-2.248 0-4.711 0-7.419-0.057-4.152 0-9.831 0-16.533-0.051-9.897-0.057-20.839-0.057-31.693-0.057-18.739 0-37.017 0.057-48.435 0.108-3.174 0-5.786 0.057-7.782 0.057-6.605 0.062-11.623 0.149-14.183 0.261-0.358 0-0.768 0-1.178 0.051-0.461 0.057-0.87 0.108-1.229 0.159-8.857 1.219-1.843 8.284-1.843 8.284s10.752 8.407 16.077 16.788c0 0 1.587 0.057 3.072 13.005 2.048 18.329 3.84 32.558 3.84 32.558h98.77c0 0 1.746-14.228 3.84-32.558 1.428-12.949 3.026-13.005 3.026-13.005 5.012-7.885 14.745-15.769 15.964-16.748 0.062 0 0.108-0.057 0.108-0.057s0.358-0.353 0.819-0.962c1.111-1.367 2.693-3.983 1.168-5.776zM255.493 40.55c0.327-0.399 0.691-0.916 1.009-1.479-0.317 0.553-0.681 1.070-1.008 1.479zM256.661 111.683c-16.226-0.067-228.081-0.738-238.403 0-10.726 0.752-11.499 11.5-11.499 11.5v281.329c0 9.2 11.495 9.728 11.495 9.728h475.484c0 0 11.5-0.528 11.5-9.728v-281.334c0 0-0.768-10.747-11.5-11.495-10.087-0.722-213.177-0.072-237.077 0zM485.878 395.31h-459.187v-259.87h459.192v259.87h-0.005z" />
<glyph unicode="&#xe618;" d="M184.99 193.080c0-42.522 34.437-76.949 76.948-76.949 31.55 0 58.675 18.995 70.548 46.167h-16.691c-12.743 0-23.081 10.348-23.081 23.086v15.396c0 12.743 10.337 23.081 23.081 23.081h16.691c-11.873 27.172-38.999 46.172-70.548 46.172-42.517-0.010-76.948-34.442-76.948-76.953zM338.887 208.466c-8.514 0-15.396-6.876-15.396-15.385 0-8.514 6.882-15.401 15.396-15.401h15.39c8.51 0 15.39 6.887 15.39 15.401 0 8.51-6.882 15.385-15.39 15.385h-15.39zM83.031 479.708c-25.492 0-46.167-20.68-46.167-46.172v-419.364c0-25.493 20.68-46.178 46.167-46.178h357.811c25.488 0 46.167 20.68 46.167 46.178v419.369c0 25.493-20.68 46.172-46.167 46.172h-357.811zM333.118 448.926h107.73c8.514 0 15.39-6.876 15.39-15.385v-30.776c0-8.514-6.876-15.39-15.39-15.39h-107.73c-8.514 0-15.39 6.876-15.39 15.39v30.776c0 8.51 6.871 15.385 15.39 15.385zM138.819 193.080c0 67.998 55.117 123.115 123.121 123.115s123.115-55.117 123.115-123.115c0-68.009-55.111-123.12-123.115-123.12s-123.12 55.111-123.12 123.12z" />
<glyph unicode="&#xe619;" d="M30.116 479.995c-15.058 0-30.116-0.021-30.116-7.526 0-7.547 10.327-16.502 15.058-22.589l195.767-235.303v-186.346l-90.352-30.115c-15.058-5.017-30.115-15.058-30.115-30.115h331.291c0 15.053-15.048 25.093-30.115 30.115l-90.346 30.12v186.351l195.761 235.293c4.731 6.087 15.048 15.042 15.048 22.589 0 7.511-15.048 7.532-30.111 7.532l-451.769-0.005z" />
<glyph unicode="&#xe61a;" d="M374.38 192.686c-39.829 0-72.243-32.409-72.243-72.243s32.414-72.243 72.243-72.243c39.834 0 72.249 32.409 72.249 72.243s-32.414 72.243-72.249 72.243zM374.38 60.601c-33.050 0-59.842 26.788-59.842 59.842s26.788 59.842 59.842 59.842 59.842-26.788 59.842-59.842-26.793-59.842-59.842-59.842zM398.32 120.438c0-13.219-10.716-23.936-23.936-23.936s-23.936 10.716-23.936 23.936c0 13.219 10.716 23.936 23.936 23.936 13.219 0 23.936-10.716 23.936-23.936zM400.046 355.010c-20.915 0-37.873-16.957-37.873-37.878s16.957-37.878 37.873-37.878c20.925 0 37.878 16.957 37.878 37.878 0 20.921-16.952 37.878-37.878 37.878zM400.046 286.464c-16.942 0-30.663 13.726-30.663 30.663s13.726 30.663 30.663 30.663c16.947 0 30.669-13.726 30.669-30.663s-13.726-30.663-30.669-30.663zM412.19 317.127c0-6.708-5.438-12.144-12.144-12.144s-12.144 5.438-12.144 12.144c0 6.708 5.438 12.144 12.144 12.144 6.707 0 12.144-5.438 12.144-12.144zM465.526 415.283h-182.287c-1.945 0-3.517-1.572-3.517-3.513v-404.24c0-1.935 1.572-3.512 3.517-3.512h182.288c1.94 0 3.512 1.577 3.512 3.512v404.245c-0.005 1.94-1.572 3.507-3.512 3.507zM400.046 359.588c23.45 0 42.466-19.015 42.466-42.46s-19.015-42.46-42.466-42.46c-23.445 0-42.455 19.015-42.455 42.46s19.010 42.46 42.455 42.46zM324.086 263.214c12.175 0 22.046-9.871 22.046-22.041s-9.872-22.041-22.046-22.041c-12.17 0-22.036 9.871-22.036 22.041s9.866 22.041 22.036 22.041zM374.38 40.627c-44.078 0-79.81 35.733-79.81 79.815s35.733 79.815 79.81 79.815 79.815-35.738 79.815-79.821-35.738-79.81-79.815-79.81zM324.086 260.229c-10.522 0-19.051-8.53-19.051-19.057s8.53-19.057 19.051-19.057c10.532 0 19.057 8.53 19.057 19.056s-8.53 19.056-19.057 19.056zM324.086 226.786c-7.952 0-14.392 6.436-14.392 14.393 0 7.952 6.441 14.393 14.392 14.393 7.962 0 14.397-6.441 14.397-14.393-0.005-7.957-6.436-14.393-14.397-14.393zM329.426 241.173c0-2.95-2.391-5.34-5.34-5.34-2.95 0-5.34 2.391-5.34 5.34 0 2.95 2.391 5.34 5.34 5.34 2.95 0 5.34-2.391 5.34-5.34zM76.503 120.438c0-39.834 32.414-72.243 72.249-72.243 39.828 0 72.243 32.409 72.243 72.243s-32.415 72.243-72.243 72.243c-39.834 0.005-72.249-32.404-72.249-72.243zM88.914 120.438c0 33.050 26.788 59.842 59.843 59.842s59.843-26.788 59.843-59.842-26.788-59.842-59.843-59.842-59.843 26.793-59.843 59.842zM172.688 120.438c0-13.219-10.716-23.936-23.936-23.936s-23.936 10.716-23.936 23.936c0 13.219 10.716 23.936 23.936 23.936 13.22 0 23.936-10.716 23.936-23.936zM85.212 317.127c0-20.921 16.957-37.878 37.878-37.878 20.915 0 37.873 16.957 37.873 37.878 0 20.925-16.958 37.878-37.873 37.878-20.925 0.005-37.878-16.952-37.878-37.878zM92.421 317.127c0 16.942 13.727 30.663 30.669 30.663s30.663-13.726 30.663-30.663-13.721-30.663-30.663-30.663c-16.947 0-30.669 13.726-30.669 30.663zM135.234 317.127c0-6.708-5.438-12.144-12.144-12.144-6.707 0-12.144 5.438-12.144 12.144 0 6.708 5.438 12.144 12.144 12.144 6.708 0 12.144-5.438 12.144-12.144zM54.098 411.776v-404.24c0-1.935 1.572-3.512 3.513-3.512h182.287c1.946 0 3.518 1.577 3.518 3.512v404.24c0 1.94-1.572 3.512-3.518 3.512h-182.287c-1.941-0.005-3.513-1.572-3.513-3.512zM165.545 317.127c0-23.445-19.011-42.46-42.455-42.46-23.45 0-42.466 19.015-42.466 42.46s19.016 42.46 42.465 42.46c23.445 0 42.455-19.010 42.455-42.46zM221.087 241.173c0-12.17-9.866-22.041-22.036-22.041-12.175 0-22.047 9.871-22.047 22.041s9.871 22.041 22.047 22.041c12.17 0 22.036-9.871 22.036-22.041zM68.941 120.438c0 44.078 35.733 79.815 79.816 79.815s79.81-35.733 79.81-79.815-35.733-79.815-79.81-79.815-79.816 35.738-79.816 79.815zM179.994 241.173c0-10.526 8.525-19.057 19.056-19.057 10.522 0 19.052 8.53 19.052 19.056s-8.53 19.056-19.052 19.056c-10.532 0-19.056-8.53-19.056-19.056zM184.653 241.173c0 7.952 6.436 14.393 14.398 14.393 7.952 0 14.393-6.441 14.393-14.393 0-7.957-6.441-14.393-14.393-14.393-7.962 0.005-14.398 6.441-14.398 14.393zM204.386 241.173c0-2.95-2.391-5.34-5.34-5.34s-5.34 2.391-5.34 5.34c0 2.95 2.391 5.34 5.34 5.34 2.95 0 5.34-2.391 5.34-5.34z" />
<glyph unicode="&#xe61b;" d="M391.111 344.889v39.111c0 5.888-4.782 10.665-10.67 10.665-5.883 0-10.665-4.777-10.665-10.665v-39.111h-42.665v39.111c0 5.888-4.782 10.665-10.67 10.665-5.883 0-10.665-4.777-10.665-10.665v-39.111h-21.335v-21.335c0-30.448 21.284-55.885 49.782-62.361v-79.862l21.279-156.989c-0.302-15.432-12.892-27.899-28.39-27.899-15.678 0-28.431 12.743-28.447 28.416h0.005v199.117l-0.005 0.025c0 23.526-19.139 42.665-42.665 42.665h-42.67v171.853c0.005 22.876-19.133 41.482-42.665 41.482h-128c-23.526 0-42.665-18.606-42.665-41.482v-470.518h213.335v270.224h42.665c7.839 0 14.218-6.385 14.218-14.224l0.005-0.026v-199.081h-0.005c0-31.37 25.518-56.889 56.889-56.889 31.37-0.005 56.894 25.513 56.894 56.883l-21.335 157.41v78.899c28.493 6.477 49.776 31.908 49.776 62.361v21.335h-21.33zM53.883 104.709l30.633 61.261h-38.292l53.607 91.904h38.287l-38.287-61.266h45.947l-91.894-91.899zM184.888 329.482c0-7.188-6.385-13.035-14.224-13.035h-128c-7.838 0-14.224 5.847-14.224 13.035v109.036c0 7.189 6.385 13.036 14.224 13.036h128c7.839 0 14.224-5.847 14.224-13.036v-109.036z" horiz-adv-x="413" />
<glyph unicode="&#xe61c;" d="M296.525 205.716c0-22.381-18.144-40.525-40.525-40.525-22.381 0-40.525 18.144-40.525 40.525 0 22.381 18.143 40.525 40.525 40.525 22.381 0 40.525-18.143 40.525-40.525zM256 480c-141.383 0-256-114.616-256-256 0-141.379 114.617-256 256-256 141.379 0 256 114.621 256 256 0 141.384-114.621 256-256 256zM256 438.206c91.5 0 169.549-57.39 200.243-138.122-0.327-11.448-3.44-24.581-15.329-28.083-50.939-19.594-93.486 22.533-187.525 23.839-94.044-1.305-136.167-43.433-187.1-23.839-8.463 2.494-12.416 9.866-14.070 18.038 27.843 85.97 108.528 148.168 203.781 148.168zM312.161 205.716c0-31.022-25.139-56.166-56.161-56.166s-56.161 25.144-56.161 56.166c0 31.017 25.144 56.161 56.161 56.161s56.161-25.149 56.161-56.161zM107.018 88.161c-6.579-2.99-13.578-0.42-20.112 4.423-23.895 30.704-39.65 68.050-43.919 108.841 5.791 5.934 14.899 8.382 27.499 4.291 28.534-9.257 65.27-104.489 36.531-117.555zM332.278 25.462c-1.731-1.152-2.985-2.176-3.835-3.077-22.63-8.141-47.012-12.59-72.443-12.59-28.862 0-56.376 5.75-81.5 16.092-28.759 19.399-15.698 36.342-1.439 60.974 14.367 24.817 80.328 16.973 80.328 16.973s66.381 7.839 80.748-16.973c14.372-24.822 27.755-41.82-1.858-61.399zM436.869 109.302c-9.457-12.083-23.649-26.895-36.327-21.14-28.728 13.066 8.028 108.298 36.562 117.555 15.78 5.11 26.076 0 31.252-9.411-4.091-31.703-15.104-61.209-31.488-87.004z" />
<glyph unicode="&#xe61d;" d="M256.471 278.528l0.522-0.016h0.589c53.847 0.435 97.495 45.998 97.275 101.545-0.686 55.311-45.307 100.147-99.466 99.942-26.297-0.327-50.944-10.921-69.376-29.865-18.703-19.231-28.816-44.667-28.426-71.629 0.041-27.366 10.599-52.833 29.68-71.762 18.59-18.422 43.203-28.436 69.202-28.216zM419.87-31.611l83.6 0.098-57.257 188.647c-8.986 31.15-48.072 86-115.522 87.577h-29.916c0.149-0.512 0.481-0.947 0.558-1.47l0.44-2.329-0.261-2.78c-0.712-7.746-7.024-17.229-19.236-28.56l20.946-135.465-44.288-53.217-18.514 21.796-26.358 30.736 18.826 135.716c-12.365 11.085-18.841 20.49-19.753 28.692l-0.399 2.023 0.589 3.031c0.113 0.645 0.502 1.208 0.702 1.822l-38.292-0.005c-68.93-0.399-108.749-56.371-117.76-87.915l-57.974-188.785 84.731 0.108 36.183 124.58 25.436 0.015-36.132-124.585 283.945 0.272-36.337 124.534 25.534 0.026 36.51-124.56zM269.671 218.752c14.935 13.302 16.538 19.702 16.661 21.268 0.072 0.276 0 0.389-0.010 0.425-0.251 1.367-1.305 2.811-2.837 4.183-1.849 1.659-4.423 3.251-7.44 4.572-5.591 2.519-12.601 4.239-18.826 4.162-6.067-0.010-12.944-1.808-18.432-4.342-3.011-1.372-5.601-2.97-7.46-4.644-1.628-1.444-2.714-2.959-3.011-4.434 0 0 0.010-0.077 0-0.2 0.066-1.173 1.131-7.526 17.029-21.192l3.84-3.308-19-137.134 21.852-25.452 3.947-4.551 2.898-3.471 2.903 3.492 3.886 4.623 21.433 25.81-21.171 136.837 3.738 3.353z" horiz-adv-x="504" />
<glyph unicode="&#xe61e;" d="M372.296 311.44c36.531 0 66.135 29.614 66.135 66.135v38.288h-132.281l-31.892-31.329h31.892v-6.958c0-36.521 29.625-66.135 66.145-66.135zM438.43 436.752v42.931h-164.188l29.015-42.931zM418.969 288.978h-89.436c-14.69 0-28.042-5.689-38.067-14.915l-90.578-49.229-89.15 44.053c-1.070 11.28-9.103 20.091-18.969 20.091-10.286 0-18.606-9.57-19.097-21.54-2.448-2.263-4.567-4.941-6.134-8.105-5.627-11.367-2.739-24.617 6.041-32.875v-43.546h-30.387v-30.7h30.398v-77.168c0-12.488 8.591-22.61 19.19-22.61s19.184 10.122 19.184 22.61v130.959l90.158-44.549 71.127 38.661v-232.115h202.005v264.688c0 31.089-25.2 56.29-56.284 56.29z" />
<glyph unicode="&#xe61f;" d="M59.477 51.329c24.049 0 43.52 19.542 43.52 43.596 0 24.043-19.471 43.541-43.52 43.541-24.053 0-43.602-19.488-43.602-43.541s19.542-43.596 43.602-43.596zM409.375 298.442c-1.418 0.949-2.925 1.73-4.435 2.384l-150.286 44.862c-0.611 0.212-1.233 0.399-1.871 0.557l-0.224 0.065-0.005-0.005c-1.73 0.42-3.524 0.672-5.39 0.672-11.566 0-22.87-13.53-22.87-23.165l-0.169-105.594-105.299-98.616c-13.71-17.327-6.481-38.064-6.481-38.064 7.55-22.962 33.367-23.771 33.367-23.771l187.887-0.060c10.022 0 18.162 8.189 18.162 18.353 0 10.18-8.14 18.364-18.162 18.364l-129.714 0.212 54.627 54.966c7.807 8.113 11.779 17.212 11.779 29.068 0 10.666-0.851 103.925-0.965 116.227l117.706-35.784c9.728-4.207 21.31-1.091 27.719 7.785 7.272 10.24 4.861 24.387-5.373 31.545zM398.322 307.788l47.857 47.966c8.255 6.656 10.873 18.358 6.001 28.162-5.685 11.195-19.329 15.636-30.421 9.902-1.5-0.819-2.897-1.784-4.179-2.82l-68.414-68.54 49.155-14.67zM305.581 278.797l-28.675-28.719v-63.978l77.639 77.813zM401.055 257.263c-56.87 0-102.971-46.1-102.971-102.971 0-19.923 5.675-38.512 15.473-54.273l22.685-0.038c12.843 0 23.269-10.486 23.269-23.524 0-5.336-1.762-10.219-4.708-14.158 13.911-7.005 29.618-10.977 46.259-10.977 56.865 0 102.964 46.095 102.964 102.964s-46.106 102.976-102.971 102.976z" />
<glyph unicode="&#xe620;" d="M512 311.096h-70.518l-2.98-36.311 70.974 14.884zM0 311.096l2.534-21.427 70.846-14.858-2.969 36.285zM227.374 391.618c0-0.732 0.195-1.428 0.302-2.135-41.026-3.743-71.562-14.822-87.593-21.95-32.348-14.382-42.875-28.58-43.049-32.123 1.817-9.272 53.453-33.91 158.915-33.91 105.457 0 157.092 24.638 158.919 34.007-0.185 3.451-10.711 17.648-43.054 32.025-16.036 7.127-46.572 18.202-87.593 21.95 0.103 0.712 0.302 1.403 0.302 2.135 0 4.787-2.361 9.134-6.17 12.631-5.228 4.808-13.266 7.957-22.4 7.957-9.129 0-17.172-3.144-22.4-7.957-3.815-3.502-6.18-7.844-6.18-12.631zM428.959 329.18l-20.291-243.728c-2.094-24.387-68.373-49.659-152.725-49.659-84.347 0-150.169 25.748-152.725 49.659l-20.281 243.727c0 0 14.090-41.472 173.010-41.963 158.914-0.497 173.010 41.963 173.010 41.963z" />
<glyph unicode="&#xe621;" d="M291.798 434.281l-25.733-14.166 12.637-12.637 24.803 14.883zM317.425 408.23l-23.055-16.424 13.101-13.096 22.192 17.062zM340.659 384.637l-19.448-19.666 12.239-12.245 19.555 19.347zM364 360.864l-16.81-21.879 13.101-13.101 15.992 22.49zM390.31 334.129l-14.351-23.913 13.135-13.135 13.668 24.377zM248.679 410.515l-27.519-15.174 13.993-13.986 26.662 16.025zM278.591 380.603l-24.948-17.739 14.35-14.351 24.198 18.49zM307.751 351.442l-21.24-21.453 11.959-11.959 21.454 21.24zM335.489 323.71l-18.49-24.204 14.345-14.345 17.74 24.948zM365.854 293.334l-16.020-26.662 14.238-14.239 15.348 27.34zM203.744 385.779l-21.487-11.852 15.208-15.202 20.843 12.491zM237.907 351.622l-19.493-13.852 15.421-15.42 18.876 14.457zM273.096 316.428l-16.597-16.742 11.673-11.668 16.737 16.591zM305.286 284.231l-14.452-18.882 15.421-15.415 13.846 19.487zM339.702 249.828l-12.497-20.849 15.208-15.202 11.993 21.341zM486.743 206.652l-0.062 233.343c0.011 0.129 0.022 0.257 0.034 0.392l0.039 0.325v0.067c0.964 10.267-2.464 20.882-10.317 28.729-13.986 13.987-36.7 13.987-50.687 0-0.582-0.582-1.137-1.204-1.675-1.82l-0.073 0.073-34.129-34.129c-4.437 4.414-9.831 9.813-15.841 15.924-12.877 13.085-19.252 16.188-32.947 13.175-13.695-3.019-30.163-17.88-30.163-17.88l102.404-102.399c0 0 14.861 16.462 17.88 30.163 3.014 13.695-0.118 20.103-13.202 32.981-3.854 3.792-7.428 7.338-10.648 10.553l33.485 33.49 0.146-0.14c0.297 0.381 0.605 0.756 0.964 1.109 4.823 4.823 12.664 4.823 17.488 0 2.185-2.185 3.366-4.996 3.568-7.853v-236.104h-463.005c0 0 3.366-11.819 35.888-137.144 12.867-49.578 23.459-48.104 51.029-48.356h19.129l-0.067-0.151c0.022 0 0.045 0 0.067 0l-8.984-53h28.416l11.309 53.151h286.555l11.309-53.151h28.416l-8.985 53c0.022 0 0.050 0 0.073 0l-0.073 0.151h19.135c27.57 0.252 38.162-1.221 51.028 48.356 32.521 125.325 35.894 137.144 35.894 137.144h-73.395z" horiz-adv-x="560" />
<glyph unicode="&#xe622;" d="M397.441 404.346c-5.622 28.305-23.666 39.586-50.851 50.846-26.57 11.147-90.468 24.404-137.708 24.808-47.328-0.404-111.225-13.661-137.985-24.813-26.989-11.26-45.034-22.54-50.564-50.846l-20.333-156.214v-215.523h35.023v-33.611c-0.139-41.327 60.139-41.327 60.165 0v33.611h227.397v-33.611c-0.072-41.327 60.211-41.327 60.165 0v33.611h35.024v215.523l-20.333 156.218zM122.87 440.496h172.030c16.825 0.046 16.825-25.341 0-25.423h-172.030c-16.907 0.082-16.907 25.469 0 25.423zM64.963 100.111c-15.879 0.077-28.833 13.016-28.813 29.094-0.020 15.868 12.934 28.813 28.813 28.813 16.058 0 29.007-12.945 29.1-28.813-0.092-16.078-13.041-29.022-29.1-29.094zM206.768 231.752h-153.382c-14.977-0.143-18.127 10.655-16.657 21.465l15.812 113.556c2.176 13.671 6.841 22.75 24.854 22.878h262.995c17.911-0.128 22.591-9.202 24.855-22.878l15.822-113.556c1.362-10.815-1.782-21.608-16.672-21.465h-157.626zM352.53 100.111c-15.873 0.077-28.817 13.016-28.817 29.094 0 15.868 12.945 28.813 28.817 28.813 16.063 0 29.017-12.945 29.089-28.813-0.072-16.078-13.026-29.022-29.089-29.094zM206.768 480.036c0.691 0 1.418-0.031 2.12-0.036 0.702 0.005 1.423 0.036 2.12 0.036h-4.239z" horiz-adv-x="418" />
<glyph unicode="&#xe623;" d="M135.152-8.278c-0.107-13.020 10.334-23.615 23.323-23.722 13.010-0.107 23.609 10.319 23.716 23.318l3.865 461.585c0.189 22.823-14.649 25.381-25.034 25.463-10.426 0.087-29.701-29.17-34.072-56.165-4.412-26.969-30.498-166.063 10.845-193.445l-2.645-237.034zM24.957-7.364l3.155 297.325c-16.921 0.138-25.244 20.291-28.113 34.873l10.242 153.748 13.858-124.103 12.984 123.889 13.842-124.113 15.951 123.863 10.88-124.088 15.93 123.863 7.644-153.906c-3.073-14.531-10.538-34.546-27.5-34.409l-1.802-297.329c-0.107-13.010-10.753-23.436-23.737-23.324-12.989 0.107-23.436 10.702-23.334 23.712v0 0z" horiz-adv-x="186" />
<glyph unicode="&#xe624;" d="M362.665 182.298v148.368c0 24.555-18.007 44.022-28.759 55.66-1.188 1.28-2.309 2.483-3.313 3.609l-36.091 36.117-30.961 25.927-15.078-15.084 25.933-30.971 6.498-6.492v-72.325c0-15.688 12.754-28.441 28.447-28.441h24.884v-117.335l21.279-156.99c-0.302-15.431-12.892-27.899-28.39-27.899-15.677 0-28.431 12.743-28.447 28.416h0.010v199.117l-0.010 0.025c0 23.526-19.134 42.665-42.665 42.665h-42.665v171.853c0 22.876-19.138 41.482-42.67 41.482h-128c-23.526 0-42.665-18.606-42.665-41.482v-470.518h213.335v270.224h42.665c7.839 0 14.218-6.385 14.218-14.224l0.010-0.026v-199.081h-0.010c0-31.37 25.524-56.889 56.889-56.889 31.375-0.005 56.894 25.513 56.894 56.883l-21.335 157.41zM334.218 320h-24.883c-3.927 0-7.117 3.19-7.117 7.111v50.995l7.454-7.454c1.024-1.136 2.151-2.355 3.344-3.646 8.945-9.677 21.202-22.928 21.202-36.342v-10.665zM28.447 438.518c0 7.188 6.385 13.035 14.224 13.035h128c7.839 0 14.224-5.847 14.224-13.035v-109.041c0-7.189-6.385-13.036-14.224-13.036h-128c-7.838 0-14.224 5.847-14.224 13.036v109.041z" horiz-adv-x="384" />
<glyph unicode="&#xe625;" d="M409.984 358.108c15.125 0 31.468-12.918 34.985-27.591l52.49-219.474c1.423-5.97 0.538-11.361-2.483-15.196-3.036-3.85-8.079-5.95-14.192-5.95h-441.462c-14.034 0-25.456 11.402-25.456 25.442v217.314c0 14.034 11.418 25.457 25.456 25.457h370.663zM409.984 371.983h-370.663c-21.622 0-39.322-17.69-39.322-39.332v-217.314c0-21.627 17.7-39.327 39.322-39.327h441.457c21.622 0 35.2 17.219 30.178 38.246l-52.49 219.464c-5.028 21.053-26.844 38.262-48.481 38.262v0zM268.155 278.333l-37.627 38.902-37.622-38.902h20.864v-31.216h33.52v31.216zM427.842 185.759c-5.028 21.012-26.839 38.236-48.466 38.236h-353.95v-108.656c0-7.649 6.242-13.88 13.895-13.88h408.694l-20.173 84.301zM230.528 126.142l-37.627 38.887h20.864v31.237h33.52v-31.237h20.864l-37.622-38.887z" />
<glyph unicode="&#xe626;" d="M60.258 99.937h474.974v-92.159h-474.974v92.159zM556.499 99.937h42.535v-92.159h-42.535v92.159zM613.212 99.937h42.535v-92.159h-42.535v92.159zM628.532 142.053l-19.899 7.536c1.169 3.091 2.701 6.486 4.352 10.151 6.551 14.49 13.972 30.916 7.075 47.774-7.21 17.652-29.293 33.758-65.631 47.88-115.673 44.945-94.57 184.020-94.342 185.417l20.998-3.389c-0.801-5.026-18.481-123.536 81.050-162.214 42.591-16.546 67.985-36.063 77.619-59.663 10.35-25.322-0.326-48.944-7.387-64.575-1.453-3.212-2.808-6.196-3.835-8.918zM588.187 121.686l-19.899 7.522c1.169 3.098 2.701 6.501 4.352 10.173 6.551 14.49 13.966 30.923 7.075 47.781-7.217 17.645-29.299 33.752-65.631 47.866-115.681 44.952-94.57 184.027-94.342 185.424l20.998-3.389c-0.801-5.026-18.481-123.536 81.050-162.221 42.585-16.539 67.978-36.048 77.612-59.641 10.357-25.329-0.312-48.95-7.372-64.589-1.453-3.226-2.822-6.203-3.842-8.925z" horiz-adv-x="709" />
<glyph unicode="&#xe627;" d="M197.98 174.336v-197.269c0-4.966-4.066-9.067-9.067-9.067s-9.067 4.101-9.067 9.067v197.269c0 7.829-6.369 14.228-14.269 14.228-7.798 0-14.198-6.4-14.198-14.228 0-4.971-4.101-9.037-9.067-9.037-5.002 0-9.067 4.065-9.067 9.037 0 13.302 8.028 24.566 19.43 29.563-22.963 34.135-35.733 71.767-42.599 103.168l-41.39-117.269c-0.031-0.067-0.164-0.133-0.2-0.164 1.5-5.033 26.998-95.068-3.266-197.069-3.036-10.265-12.401-16.829-22.569-16.829-2.202 0-4.47 0.302-6.702 0.962-12.467 3.666-19.599 16.798-15.898 29.266 24.069 81.173 7.035 155.668 3.702 168.601-25.57 49.833-30.53 95.836-14.7 136.802 25.267 65.398 94.633 91.264 97.566 92.365 12.165 4.47 25.799-1.863 30.198-14.065 1.566-4.301 1.065-14.433 1.065-15.334 0-0.834 0.87-90.163 48.435-155.868 4.434-6.164 4.398-14.101 0.599-20.229 6.666-5.904 11.065-14.3 11.065-23.9zM219.853 433.869c0-25.498-20.7-46.198-46.137-46.198-25.534 0-46.264 20.7-46.264 46.198 0 25.564 20.731 46.131 46.264 46.131 25.436 0 46.137-20.567 46.137-46.131z" horiz-adv-x="220" />
<glyph unicode="&#xe628;" d="M451.697 28.324c-1.838 0-3.722 0.256-5.504-0.051-5.447-0.921-9.877 3.815-10.43 8.99-0.317 2.898-1.705 4.639-4.639 5.002-3.231 0.389-3.527 2.514-3.123 5.115 0.435 2.775 1.664 5.048 4.024 6.661 2.089 1.423 4.322 2.483 6.733 3.272 2.882 0.932 6.83 0.399 7.849 4.316 1.255 4.803 2.908 9.753-0.707 14.397-0.61 0.773-1.337 1.705-1.408 2.616-0.522 6.462-5.33 9.733-9.712 13.307-2.473 2.017-4.731 4.209-6.702 6.728-1.224 1.577-2.447 3.246-3.983 4.47-9.789 7.788-18.253 17.116-28.764 24.084-6.293 4.163-11.678 9.452-15.882 15.826-1.219 1.849-2.75 3.599-4.721 4.393-4.915 1.997-8.842 5.217-12.682 8.75-2.462 2.263-5.627 3.553-8.935 4.342-6.216 1.474-6.211 1.495-10.050-3.743-4.127-5.632-13.63-7.649-19.901-3.63-3.789 2.432-7.286 2.468-11.408 1.567-10.752-2.365-21.417-4.921-31.632-9.113-2.509-1.029-5.233-0.957-7.921-0.957-17.889 0-35.779-0.015-53.662-0.036-1.838 0-3.727 0.21-5.509-0.128-7.275-1.377-11.618-3.998-12.252-11.413-0.691-8.115-3.093-16.072-4.234-24.171-1.782-12.697-3.748-25.431-1.623-38.313 0.394-2.381 0.266-4.854-1.705-6.512-2.837-2.386-3.507-5.873-5.222-8.791-3.911-6.656-6.928-14.613-16.128-16.363-2.918-0.553-5.719-1.863-8.499-3-5.033-2.048-10.127-1.92-15.257-0.599-3.256 0.839-11.1 12.211-10.768 15.442 0.317 3.067 5.376 8.115 9.385 8.873 3.983 0.758 7.864 1.162 10.132 5.351 2.873 5.31 4.674 10.788 3.492 16.819-1.838 9.406-1.638 18.918-2.038 28.416-0.446 10.496 0.149 21.084-2.57 31.406-1.034 3.922-1.008 7.966-0.839 11.971 0.169 3.983-1.25 7.014-4.188 9.707-5.893 5.406-12.391 10.255-17.081 16.839-8.458 11.863-18.54 22.789-22.006 37.611-0.589 2.509-0.42 4.828-0.164 7.363 0.793 7.962 3.502 15.595 3.804 23.598 0.205 5.427-2.329 10.046-5.427 14.203-3.251 4.362-5.79 8.883-6.897 14.285-1.316 6.446-3.001 7.993-9.575 7.757-8.499-0.307-16.138 2.668-23.716 5.653-4.716 1.858-8.254 5.652-10.46 10.368-1.572 3.369-3.405 6.528-6.231 9.001-2.376 2.084-3.42 4.9-4.373 7.767-1.209 3.64-2.319 7.275-4.275 10.665-2.109 3.656-1.342 6.933 2.355 9.058 7.623 4.378 14.782 9.795 24.059 10.701 5.197 0.507 8.725 5.253 8.279 10.599-0.374 4.439 1.52 7.014 5.177 9.344 13.087 8.33 27.74 11.269 42.778 12.887 5.013 0.537 9.748-0.748 12.959-5.079 7.511-10.137 17.060-18.345 25.799-27.305 3.333-3.415 5.959-7.035 7.44-11.668 3.768-11.766 10.624-21.151 20.633-28.785 7.198-5.488 15.104-9.067 23.189-12.57 2.176-0.942 4.377-1.802 6.036-3.471 4.147-4.168 9.246-5.924 14.946-6.072 5.115-0.133 9.39-1.849 12.964-5.581 3.031-3.169 6.8-4.633 11.31-4.285 6.216 0.476 12.329-0.891 18.462-1.526 6.512-0.676 13.010-1.014 19.517-0.778 14.725 0.527 29.378-1.050 44.078-1.26 7.623-0.108 15.175-2.13 22.933-1.874 5.361 0.174 10.67 0.619 15.969 1.321 2.688 0.353 5.325 1.101 7.547 2.575 8.965 5.955 16.957 12.908 21.965 22.713 0.983 1.935 1.685 4.055 2.887 5.837 5.315 7.839 6.339 16.778 4.772 25.523-1.474 8.187-4.188 15.954-11.274 22.139-12.216 10.665-26.307 17.506-40.94 23.706-10.553 4.475-18.714 12.119-26.44 20.301-0.45 0.476-0.788 1.091-1.060 1.695-1.009 2.299-2.381 4.793-0.231 6.989 1.971 2.017 4.423 0.937 6.543-0.036 2.268-1.040 4.521-2.212 6.579-3.615 12.754-8.653 26.952-13.762 41.871-17.014 5.817-1.27 10.348-4.5 14.597-8.361 8.269-7.506 17.111-14.439 22.687-24.494 9.262-16.686 11.704-33.822 4.065-51.799-3.594-8.453-7.271-16.881-10.731-25.39-1.628-4.019-3.886-7.368-7.741-9.498-3.42-1.884-4.654-4.818-4.925-8.663-0.491-6.825 0.87-12.702 5.678-17.966 5.837-6.375 7.88-14.269 8.914-22.882 0.983-8.187 0.24-15.815-1.567-23.731-1.634-7.163-1.582-14.562 1.264-21.694 1.69-4.24 2.063-8.837 1.721-13.337-0.517-6.717 1.863-12.037 6.666-16.548 6.205-5.832 11.93-12.135 18.452-17.664 7.173-6.082 11.315-14.070 13.819-23.224 2.734-9.984 3.394-20.004 3.415-30.249 0.010-6.139 1.193-12.272 1.879-18.406 0.128-1.162 0.44-2.299 0.599-3.456 1.3-9.134-2.606-14.827-11.556-16.926-3.615-0.87-7.286-0.604-10.957-0.286z" />
<glyph unicode="&#xe629;" d="M294.82 76.81v359.245c0 21.412-17.413 38.825-38.82 38.825s-38.82-17.413-38.82-38.825v-359.25c-10.85-10.301-17.659-24.817-17.659-40.919 0-31.145 25.339-56.478 56.478-56.478 31.145 0 56.478 25.334 56.478 56.478 0 16.108-6.81 30.623-17.659 40.924zM256-0.108c-19.85 0-35.999 16.149-35.999 35.998 0 13.143 7.107 24.637 17.659 30.919v369.244c0 10.117 8.228 18.345 18.34 18.345 10.117 0 18.34-8.228 18.34-18.345v-18.77h-13.22c-4.946 0-8.96-4.014-8.96-8.96s4.014-8.96 8.96-8.96h13.22v-20.48h-13.22c-4.946 0-8.96-4.014-8.96-8.96s4.014-8.96 8.96-8.96h13.22v-20.485h-13.22c-4.946 0-8.96-4.014-8.96-8.96s4.014-8.96 8.96-8.96h13.22v-20.485h-13.22c-4.946 0-8.96-4.014-8.96-8.96s4.014-8.96 8.96-8.96h13.22v-20.48h-13.22c-4.946 0-8.96-4.014-8.96-8.96s4.014-8.96 8.96-8.96h13.22v-178.949c10.553-6.282 17.659-17.776 17.659-30.919 0-19.845-16.149-35.993-35.998-35.993zM268.221 61.942v151.445h-24.346v-151.393c-10.087-4.608-17.106-14.761-17.106-26.573 0-16.144 13.087-29.23 29.23-29.23s29.23 13.087 29.23 29.23c0 11.771-6.974 21.888-17.009 26.522z" />
<glyph unicode="&#xe75b;" d="M177.615 192c7.438 36.521 39.688 64 78.396 64 38.709 0 70.958-27.479 78.376-64h32c-7.834 54.125-54.084 96-110.376 96-56.271 0-102.541-41.875-110.375-96h31.979zM256.011 320c8.833 0 16 7.167 16 16v32c0 8.833-7.167 16-16 16-8.832 0-16-7.167-16-16v-32c0-8.833 7.168-16 16-16zM403.073 323.083c-6.249 6.25-16.374 6.25-22.625 0l-22.625-22.625c-6.249-6.25-6.249-16.375 0-22.625 6.251-6.25 16.376-6.25 22.625 0l22.625 22.625c6.25 6.25 6.25 16.375 0 22.625zM154.177 300.458l-22.625 22.625c-6.249 6.25-16.373 6.25-22.625 0-6.249-6.25-6.249-16.375 0-22.625l22.625-22.625c6.252-6.25 16.376-6.25 22.625 0 6.252 6.25 6.252 16.375 0 22.625zM352.011 160h-192c-8.832 0-16-7.167-16-16s7.168-16 16-16h192c8.833 0 16 7.167 16 16s-7.167 16-16 16zM320.011 96h-128c-8.832 0-16-7.167-16-16s7.168-16 16-16h128c8.833 0 16 7.167 16 16s-7.167 16-16 16z" />
<glyph unicode="&#xe75c;" d="M256 336c-61.75 0-112-50.25-112-112s50.25-112 112-112 112 50.25 112 112c0 61.75-50.25 112-112 112zM256 144c-44.188 0-80 35.812-80 80s35.812 80 80 80 80-35.812 80-80-35.812-80-80-80zM256 368c8.833 0 16 7.167 16 16v32c0 8.833-7.167 16-16 16s-16-7.167-16-16v-32c0-8.833 7.167-16 16-16zM256 80c-8.833 0-16-7.167-16-16v-32c0-8.833 7.167-16 16-16s16 7.167 16 16v32c0 8.833-7.167 16-16 16zM380.438 325.833l22.625 22.625c6.25 6.25 6.25 16.375 0 22.625s-16.375 6.25-22.625 0l-22.625-22.625c-6.25-6.25-6.25-16.375 0-22.625 6.249-6.25 16.375-6.25 22.625 0zM131.562 122.166l-22.625-22.625c-6.25-6.249-6.25-16.374 0-22.624s16.375-6.25 22.625 0l22.625 22.624c6.25 6.271 6.25 16.376 0 22.625-6.249 6.251-16.375 6.272-22.625 0zM112 224c0 8.833-7.167 16-16 16h-32c-8.833 0-16-7.167-16-16s7.167-16 16-16h32c8.833 0 16 7.167 16 16zM448 240h-32c-8.833 0-16-7.167-16-16s7.167-16 16-16h32c8.833 0 16 7.167 16 16s-7.167 16-16 16zM131.541 325.833c6.251-6.25 16.376-6.25 22.625 0 6.251 6.25 6.251 16.375 0 22.625l-22.625 22.625c-6.25 6.25-16.374 6.25-22.625 0-6.25-6.25-6.25-16.375 0-22.625l22.625-22.625zM380.459 122.188c-6.271 6.25-16.376 6.25-22.625 0-6.251-6.25-6.271-16.375 0-22.625l22.625-22.625c6.249-6.25 16.374-6.25 22.624 0s6.25 16.374 0 22.625l-22.624 22.625z" />
<glyph unicode="&#xe75d;" d="M349.852 136.85c-49.876-49.916-131.083-49.916-181 0-49.916 49.917-49.916 131.125 0 181.021 13.209 13.187 29.312 23.25 47.832 29.812 5.834 2.042 12.293 0.562 16.625-3.792 4.376-4.375 5.855-10.833 3.793-16.625-12.542-35.375-4-73.666 22.249-99.917 26.209-26.228 64.501-34.75 99.917-22.25 5.792 2.062 12.271 0.583 16.625-3.792 4.376-4.333 5.834-10.812 3.771-16.625-6.521-18.52-16.604-34.623-29.812-47.832zM191.477 295.246c-37.438-37.438-37.438-98.354 0-135.771 40-40.021 108.125-36.417 143 8.167-35.959-2.25-71.375 10.729-97.75 37.084-26.375 26.354-39.333 61.771-37.084 97.729-2.874-2.251-5.604-4.647-8.166-7.209z" />
<glyph unicode="&#xe75e;" d="M271 353c8.833 0 16 7.167 16 16v32c0 8.833-7.167 16-16 16s-16-7.167-16-16v-32c0-8.833 7.167-16 16-16zM271 65c-8.833 0-16-7.167-16-16v-32c0-8.833 7.167-16 16-16s16 7.167 16 16v32c0 8.833-7.167 16-16 16zM146.562 107.166l-22.625-22.625c-6.25-6.249-6.25-16.374 0-22.624s16.375-6.25 22.625 0l22.625 22.624c6.25 6.271 6.25 16.376 0 22.625-6.249 6.251-16.375 6.272-22.625 0zM127 209c0 8.833-7.167 16-16 16h-32c-8.833 0-16-7.167-16-16s7.167-16 16-16h32c8.833 0 16 7.167 16 16zM146.541 310.833c6.251-6.25 16.376-6.25 22.625 0 6.251 6.25 6.251 16.375 0 22.625l-22.625 22.625c-6.25 6.25-16.374 6.25-22.625 0-6.25-6.25-6.25-16.375 0-22.625l22.625-22.625zM335 321c-11.188 0-21.812-2.167-32-5.208-10.188 3.042-20.812 5.208-32 5.208-61.75 0-112-50.25-112-112s50.25-112 112-112c11.188 0 21.812 2.166 32 5.209 10.188-3.043 20.812-5.209 32-5.209 61.75 0 112 50.25 112 112s-50.25 112-112 112zM255.229 130.583c-36.646 7.333-64.229 39.626-64.229 78.417 0 38.792 27.583 71.083 64.229 78.417-19.895-20.229-32.229-47.875-32.229-78.417s12.334-58.188 32.229-78.417z" />
<glyph unicode="&#xe75f;" d="M495 257h-81.625c-8.063 71.792-68.437 128-142.375 128-49.812 0-93.75-25.458-119.625-64h-104.375c-8.833 0-16-7.167-16-16s7.167-16 16-16h88.833c-3.624-10.208-5.979-20.896-7.208-32h-49.625c-8.833 0-16-7.167-16-16s7.167-16 16-16h49.625c1.229-11.084 3.584-21.812 7.208-32h-85.917c-10.457 0-18.916-7.167-18.916-16s8.459-16 18.916-16h101.459c25.875-38.562 69.812-64 119.625-64 49.812 0 93.75 25.438 119.624 64h37.46c10.457 0 18.916 7.167 18.916 16s-8.459 16-18.916 16h-21.917c3.624 10.188 5.958 20.916 7.208 32h81.625c8.833 0 16 7.167 16 16s-7.167 16-16 16zM170.229 289h100.771c8.833 0 16 7.167 16 16s-7.167 16-16 16h-78.146c20.209 19.729 47.729 32 78.146 32 56.291 0 102.542-41.875 110.375-96h-220.75c1.625 11.312 4.834 22.042 9.604 32zM271 129c-30.417 0-57.938 12.291-78.146 32h156.271c-20.187-19.709-47.708-32-78.125-32zM371.75 193h-201.521c-4.77 9.958-7.979 20.688-9.604 32h220.75c-1.625-11.312-4.834-22.042-9.625-32z" />
<glyph unicode="&#xe760;" d="M431 288c-26.5 0-48-21.5-48-48 0-5.646 1.167-10.958 2.938-16h-306.938c-8.833 0-16-7.167-16-16s7.167-16 16-16h352c26.5 0 48 21.5 48 48s-21.5 48-48 48zM79 256h192c26.5 0 48 21.5 48 48s-21.5 48-48 48-48-21.5-48-48c0-5.646 1.167-10.958 2.938-16h-146.938c-8.833 0-16-7.167-16-16s7.167-16 16-16zM335 160c-0.938 0-1.834-0.208-2.791-0.291-0.625 0.041-1.146 0.291-1.771 0.291h-246.854c-11.375 0-20.584-7.167-20.584-16s9.209-16 20.584-16h206.354c-1.771-5.042-2.938-10.376-2.938-16 0-26.5 21.5-48 48-48s48 21.5 48 48-21.5 48-48 48z" />
<glyph unicode="&#xe761;" d="M382.872 187.75l-32.625 18.834c1.042 5.666 1.75 11.458 1.75 17.416 0 5.979-0.708 11.792-1.792 17.458l32.625 18.854c15.333 8.875 20.542 28.438 11.729 43.688-8.854 15.312-28.375 20.562-43.688 11.75l-32.938-19.021c-8.812 7.5-18.854 13.417-29.938 17.354v37.917c0 17.667-14.312 32-32 32-17.666 0-32-14.333-32-32v-37.896c-11.083-3.938-21.125-9.855-29.937-17.354l-32.876 18.979c-15.312 8.833-34.896 3.604-43.749-11.708-8.813-15.292-3.562-34.854 11.749-43.688l32.563-18.813c-1.062-5.688-1.751-11.521-1.751-17.521 0-5.958 0.688-11.771 1.751-17.438l-32.584-18.812c-15.334-8.834-20.584-28.438-11.729-43.75 8.811-15.25 28.395-20.5 43.729-11.688l32.833 18.979c8.813-7.5 18.875-13.458 30-17.417v-37.873c0-17.688 14.334-32 32-32 17.688 0 32 14.312 32 32v37.917c11.125 3.958 21.188 9.875 29.958 17.395l32.917-18.999c15.312-8.812 34.876-3.562 43.688 11.688 8.857 15.311 3.628 34.874-11.685 43.749zM223.997 224c0 17.667 14.312 32 32 32 17.667 0 32-14.333 32-32 0-17.666-14.333-32-32-32-17.687 0-32 14.334-32 32z" />
<glyph unicode="&#xe762;" d="M208 416c8.833 0 16 7.167 16 16v32c0 8.833-7.167 16-16 16s-16-7.167-16-16v-32c0-8.833 7.167-16 16-16zM332.438 373.833l22.625 22.625c6.249 6.25 6.249 16.375 0 22.625-6.25 6.25-16.375 6.25-22.625 0l-22.625-22.625c-6.25-6.25-6.25-16.375 0-22.625 6.249-6.25 16.375-6.25 22.625 0zM16 256h32c8.833 0 16 7.167 16 16s-7.167 16-16 16h-32c-8.833 0-16-7.167-16-16s7.167-16 16-16zM352 272c0-8.833 7.167-16 16-16h32c8.833 0 16 7.167 16 16s-7.167 16-16 16h-32c-8.833 0-16-7.167-16-16zM83.541 373.833c6.251-6.25 16.376-6.25 22.625 0 6.251 6.25 6.251 16.375 0 22.625l-22.625 22.625c-6.25 6.25-16.374 6.25-22.625 0-6.25-6.25-6.25-16.375 0-22.625l22.625-22.625zM400 224c-5.312 0-10.562-0.375-15.792-1.125-16.771 22.875-39.124 40.333-64.458 51.5-1.291 60.625-50.812 109.625-111.75 109.625-61.75 0-112-50.25-112-112 0-17.438 4.334-33.75 11.5-48.438-59.625-2.437-107.5-51.374-107.5-111.562 0-61.75 50.25-112 112-112 13.688 0 27.084 2.5 39.709 7.333 28.957-25.25 65.791-39.333 104.291-39.333 38.542 0 75.333 14.083 104.291 39.333 12.625-4.833 26.021-7.333 39.709-7.333 61.75 0 112 50.25 112 112s-50.25 112-112 112zM208 352c39.812 0 72.562-29.167 78.708-67.25-10.021 2-20.249 3.25-30.708 3.25-45.938 0-88.5-19.812-118.375-53.25-5.937 11.167-9.625 23.708-9.625 37.25 0 44.188 35.812 80 80 80zM400 32c-17.125 0-32.916 5.5-45.938 14.667-23.478-28.292-58.438-46.667-98.062-46.667-39.625 0-74.584 18.375-98.062 46.667-13-9.167-28.813-14.667-45.938-14.667-44.188 0-80 35.812-80 80s35.812 80 80 80c7.75 0 15.062-1.458 22.125-3.541 2.812-0.792 5.667-1.417 8.312-2.521 4.375 8.562 9.875 16.396 15.979 23.75 23.376 28.124 58.146 46.312 97.584 46.312 10.125 0 19.834-1.458 29.25-3.709 10.562-2.499 20.542-6.291 29.834-11.291 23.291-12.375 42.416-31.542 54.457-55.063 9.397 3.875 19.668 6.063 30.459 6.063 44.188 0 80-35.812 80-80s-35.812-80-80-80z" />
<glyph unicode="&#xe763;" d="M435.062 217.834c4.875 3.625 9.812 7.188 14.229 11.604 13.208 13.229 23.271 29.333 29.792 47.854 2.083 5.792 0.604 12.292-3.772 16.625-4.354 4.375-10.812 5.854-16.623 3.792-35.396-12.5-73.688-4-99.896 22.25-26.25 26.251-34.792 64.521-22.25 99.896 2.042 5.813 0.583 12.271-3.792 16.646-4.333 4.333-10.812 5.834-16.625 3.791-18.542-6.582-34.625-16.623-47.834-29.832-33.541-33.5-43.979-81-32.479-123.792-43.25-5.521-82.125-28.5-108.021-63.793-5.229 0.75-10.479 1.125-15.792 1.125-61.75 0-112-50.25-112-112.001 0-61.749 50.25-111.999 112-111.999 13.688 0 27.084 2.5 39.709 7.334 28.957-25.25 65.791-39.334 104.291-39.334 38.542 0 75.333 14.084 104.291 39.334 12.625-4.834 26.021-7.334 39.709-7.334 61.75 0 112 50.25 112 111.999 0.001 49.439-32.416 91.022-76.937 105.835zM290.916 387.834c2.542 2.583 5.271 4.979 8.146 7.229-2.25-35.979 10.729-71.375 37.104-97.729 26.376-26.375 61.771-39.333 97.751-37.104-13.792-17.584-32.792-28.521-53.126-33.188-27.375 34.75-67.604 56.625-111.958 60.187-12.271 33.959-5.083 73.438 22.083 100.605zM400 32c-17.125 0-32.916 5.5-45.938 14.667-23.479-28.292-58.438-46.667-98.062-46.667-39.625 0-74.584 18.375-98.062 46.667-13-9.167-28.812-14.667-45.938-14.667-44.188 0-80 35.812-80 79.999 0 44.188 35.812 80 80 80 10.812 0 21.062-2.188 30.438-6.062 20.188 39.355 59.75 66.896 106.312 69.543 2.438 0.145 4.812 0.521 7.25 0.521 12.916 0 25.312-2.021 37-5.583 15.791-4.834 30.188-12.708 42.688-22.854 11.938-9.688 21.938-21.562 29.812-34.896 1.333-2.25 2.834-4.375 4.041-6.729 9.396 3.875 19.668 6.062 30.459 6.062 44.188 0 80-35.812 80-80s-35.812-80.001-80-80.001z" />
<glyph unicode="&#xe764;" d="M256 385c8.833 0 16 7.167 16 16v32c0 8.833-7.167 16-16 16s-16-7.167-16-16v-32c0-8.833 7.167-16 16-16zM380.438 342.833l22.625 22.625c6.249 6.25 6.249 16.375 0 22.625-6.25 6.25-16.375 6.25-22.625 0l-22.625-22.625c-6.25-6.25-6.25-16.375 0-22.625s16.375-6.25 22.625 0zM64 225h32c8.833 0 16 7.167 16 16s-7.167 16-16 16h-32c-8.833 0-16-7.167-16-16s7.167-16 16-16zM400 241c0-8.833 7.167-16 16-16h32c8.833 0 16 7.167 16 16s-7.167 16-16 16h-32c-8.833 0-16-7.167-16-16zM131.541 342.833c6.251-6.25 16.376-6.25 22.625 0 6.251 6.25 6.251 16.375 0 22.625l-22.625 22.625c-6.25 6.25-16.374 6.25-22.625 0-6.25-6.25-6.25-16.375 0-22.625l22.625-22.625zM145.625 225h32c-1.062 5.167-1.625 10.521-1.625 16 0 44.188 35.812 80 80 80 44.188 0 80-35.812 80-80 0-5.479-0.562-10.833-1.625-16h32c0.792 5.271 1.625 10.521 1.625 16 0 61.75-50.25 112-112 112s-112-50.25-112-112c0-5.479 0.875-10.729 1.625-16zM448 193h-384c-8.833 0-16-7.167-16-16s7.167-16 16-16h384c8.833 0 16 7.167 16 16s-7.167 16-16 16zM448 129h-384c-8.833 0-16-7.167-16-16s7.167-16 16-16h384c8.833 0 16 7.167 16 16s-7.167 16-16 16zM448 65h-384c-8.833 0-16-7.167-16-16s7.167-16 16-16h384c8.833 0 16 7.167 16 16s-7.167 16-16 16z" />
<glyph unicode="&#xe765;" d="M64 160.999h384c8.833 0 16 7.167 16 16s-7.167 16-16 16h-384c-8.833 0-16-7.167-16-16s7.167-16 16-16zM448 128.999h-384c-8.833 0-16-7.167-16-16s7.167-16 16-16h384c8.833 0 16 7.167 16 16s-7.167 16-16 16zM448 64.999h-384c-8.833 0-16-7.167-16-16s7.167-16 16-16h384c8.833 0 16 7.167 16 16s-7.167 16-16 16zM205.042 225c-0.333 0.333-0.751 0.542-1.083 0.875-37.438 37.438-37.438 98.334 0 135.792 2.562 2.542 5.27 4.958 8.146 7.208-2.251-35.958 10.729-71.375 37.104-97.729 26.374-26.396 61.79-39.333 97.749-37.083-2.667-3.396-5.874-6.125-8.896-9.062h41.521c5.042 8.042 9.25 16.75 12.583 26.063 2.021 5.854 0.542 12.333-3.833 16.667-4.291 4.354-10.792 5.854-16.624 3.791-35.376-12.499-73.646-3.979-99.875 22.25-26.251 26.25-34.792 64.521-22.251 99.896 2.083 5.812 0.583 12.271-3.791 16.646-4.334 4.354-10.813 5.833-16.625 3.771-18.521-6.542-34.625-16.604-47.833-29.792-43.209-43.21-48.855-109.772-17.272-159.293h40.98z" />
<glyph unicode="&#xe766;" d="M33.604 224c-1.042 5.167-1.604 10.521-1.604 16 0 44.188 35.812 80 80 80 10.812 0 21.062-2.208 30.438-6.083 21.229 41.416 63.853 70.083 113.562 70.083s92.334-28.667 113.541-70.083c9.397 3.875 19.668 6.083 30.459 6.083 44.188 0 80-35.812 80-80 0-5.479-0.562-10.833-1.625-16h32c0.792 5.271 1.625 10.521 1.625 16 0 61.75-50.25 112-112 112-5.312 0-10.562-0.375-15.792-1.125-29.874 40.708-77.020 65.125-128.208 65.125s-98.312-24.417-128.208-65.125c-5.23 0.75-10.48 1.125-15.792 1.125-61.75 0-112-50.25-112-112 0-5.479 0.854-10.729 1.625-16h31.979zM496 192h-480c-8.833 0-16-7.167-16-16s7.167-16 16-16h480c8.833 0 16 7.167 16 16s-7.167 16-16 16zM496 128h-480c-8.833 0-16-7.167-16-16s7.167-16 16-16h480c8.833 0 16 7.167 16 16s-7.167 16-16 16zM496 64h-480c-8.833 0-16-7.167-16-16s7.167-16 16-16h480c8.833 0 16 7.167 16 16s-7.167 16-16 16z" />
<glyph unicode="&#xe767;" d="M112 320h288c8.833 0 16 7.167 16 16s-7.167 16-16 16h-288c-8.833 0-16-7.167-16-16s7.167-16 16-16zM400 288h-288c-8.833 0-16-7.167-16-16s7.167-16 16-16h288c8.833 0 16 7.167 16 16s-7.167 16-16 16zM400 224h-288c-8.833 0-16-7.167-16-16s7.167-16 16-16h288c8.833 0 16 7.167 16 16s-7.167 16-16 16zM400 160h-288c-8.833 0-16-7.167-16-16s7.167-16 16-16h288c8.833 0 16 7.167 16 16s-7.167 16-16 16z" />
<glyph unicode="&#xe768;" d="M400 320c-5.312 0-10.562-0.375-15.792-1.125-29.874 40.708-77.020 65.125-128.208 65.125s-98.312-24.417-128.208-65.125c-5.23 0.75-10.48 1.125-15.792 1.125-61.75 0-112-50.25-112-112 0-61.75 50.25-112 112-112 13.688 0 27.084 2.5 39.709 7.333 28.957-25.25 65.791-39.333 104.291-39.333 38.542 0 75.333 14.083 104.291 39.333 12.625-4.833 26.021-7.333 39.709-7.333 61.75 0 112 50.25 112 112 0 61.75-50.25 112-112 112zM400 128c-17.125 0-32.916 5.5-45.938 14.667-23.478-28.291-58.438-46.667-98.062-46.667-39.625 0-74.584 18.376-98.062 46.667-13-9.167-28.813-14.667-45.938-14.667-44.188 0-80 35.812-80 80s35.812 80 80 80c10.812 0 21.062-2.208 30.438-6.083 21.229 41.416 63.853 70.083 113.562 70.083s92.334-28.667 113.541-70.083c9.397 3.875 19.668 6.083 30.459 6.083 44.188 0 80-35.812 80-80s-35.812-80-80-80z" />
<glyph unicode="&#xe769;" d="M400 416c-5.312 0-10.562-0.375-15.792-1.125-29.874 40.708-77.020 65.125-128.208 65.125-51.188 0-98.312-24.417-128.208-65.125-5.23 0.75-10.48 1.125-15.792 1.125-61.75 0-112-50.25-112-112s50.25-112 112-112c13.688 0 27.084 2.5 39.709 7.333 21.541-18.771 47.416-31.291 75.104-36.521l-34.813-34.812 32-32-32-96 96 96-32 32 11 32.999c34.458 2.438 67.125 15.543 93.291 38.334 12.625-4.833 26.021-7.333 39.709-7.333 61.75 0 112 50.25 112 112s-50.25 112-112 112zM400 224c-17.125 0-32.916 5.5-45.938 14.667-18.938-22.833-45.562-38.625-75.875-44.104l-22.187-2.563c-39.625 0-74.584 18.375-98.062 46.667-13-9.167-28.813-14.667-45.938-14.667-44.188 0-80 35.812-80 80s35.812 80 80 80c10.812 0 21.062-2.208 30.438-6.083 21.229 41.416 63.853 70.083 113.562 70.083s92.334-28.667 113.541-70.083c9.397 3.875 19.668 6.083 30.459 6.083 44.188 0 80-35.812 80-80s-35.812-80-80-80z" />
<glyph unicode="&#xe76a;" d="M400 416c-5.312 0-10.562-0.375-15.792-1.125-29.874 40.708-77.020 65.125-128.208 65.125-51.188 0-98.312-24.417-128.208-65.125-5.23 0.75-10.48 1.125-15.792 1.125-61.75 0-112-50.25-112-112s50.25-112 112-112c13.688 0 27.084 2.5 39.709 7.333 12.291-10.708 26.25-18.958 40.916-25.416l24.916 24.874c-23.458 7.626-44.166 21.271-59.604 39.876-12.999-9.167-28.812-14.667-45.937-14.667-44.188 0-80 35.812-80 80s35.812 80 80 80c10.812 0 21.062-2.208 30.438-6.083 21.229 41.416 63.853 70.083 113.562 70.083s92.334-28.667 113.541-70.083c9.397 3.875 19.668 6.083 30.459 6.083 44.188 0 80-35.812 80-80s-35.812-80-80-80c-17.125 0-32.916 5.5-45.938 14.667-10.375-12.521-23.312-22.667-37.625-30.584l-13.437-40.333c20.875 6.562 40.5 16.938 57.291 31.583 12.625-4.833 26.021-7.333 39.709-7.333 61.75 0 112 50.25 112 112s-50.25 112-112 112zM192 128l32-32-32-96 96 96-32 32 32 96-96-96z" />
<glyph unicode="&#xe76b;" d="M400 384c-5.312 0-10.562-0.375-15.792-1.125-29.874 40.708-77.020 65.125-128.208 65.125s-98.312-24.417-128.208-65.125c-5.23 0.75-10.48 1.125-15.792 1.125-61.75 0-112-50.25-112-112 0-61.75 50.25-112 112-112 13.688 0 27.084 2.5 39.709 7.333 28.957-25.25 65.791-39.333 104.291-39.333 38.542 0 75.333 14.083 104.291 39.333 12.625-4.833 26.021-7.333 39.709-7.333 61.75 0 112 50.25 112 112 0 61.75-50.25 112-112 112zM400 192c-17.125 0-32.916 5.5-45.938 14.667-23.478-28.292-58.438-46.667-98.062-46.667-39.625 0-74.584 18.375-98.062 46.667-13-9.167-28.813-14.667-45.938-14.667-44.188 0-80 35.812-80 80s35.812 80 80 80c10.812 0 21.062-2.208 30.438-6.083 21.229 41.416 63.853 70.083 113.562 70.083s92.334-28.667 113.541-70.083c9.397 3.875 19.668 6.083 30.459 6.083 44.188 0 80-35.812 80-80s-35.812-80-80-80zM224 32c0-17.688 14.312-32 32-32s32 14.312 32 32-32 64-32 64-32-46.312-32-64z" />
<glyph unicode="&#xe76c;" d="M400 416c-5.312 0-10.562-0.375-15.792-1.125-29.874 40.708-77.020 65.125-128.208 65.125s-98.312-24.417-128.208-65.125c-5.23 0.75-10.48 1.125-15.792 1.125-61.75 0-112-50.25-112-112s50.25-112 112-112c13.688 0 27.084 2.5 39.709 7.333 28.957-25.25 65.791-39.333 104.291-39.333 38.542 0 75.333 14.083 104.291 39.333 12.625-4.833 26.021-7.333 39.709-7.333 61.75 0 112 50.25 112 112s-50.25 112-112 112zM400 224c-17.125 0-32.916 5.5-45.938 14.667-23.478-28.292-58.438-46.667-98.062-46.667-39.625 0-74.584 18.375-98.062 46.667-13-9.167-28.813-14.667-45.938-14.667-44.188 0-80 35.812-80 80s35.812 80 80 80c10.812 0 21.062-2.208 30.438-6.083 21.229 41.416 63.853 70.083 113.562 70.083s92.334-28.667 113.541-70.083c9.397 3.875 19.668 6.083 30.459 6.083 44.188 0 80-35.812 80-80s-35.812-80-80-80zM225 0c0-17.688 14.312-32 32-32s32 14.312 32 32-32 64-32 64-32-46.312-32-64zM352 32c0-17.688 14.312-32 32-32s32 14.312 32 32-32 64-32 64-32-46.312-32-64zM96 96c0-17.688 14.312-32 32-32s32 14.312 32 32-32 64-32 64-32-46.312-32-64z" />
<glyph unicode="&#xe76d;" d="M417.042 313.917c-23.979 24.542-57.125 38.771-91.73 38.771-34.562 0-67.688-14.229-91.665-38.771-52.813-2.459-95.021-46.188-95.021-99.584 0-54.958 44.709-99.666 99.688-99.666 5.834 0 11.604 0.5 17.271 1.499 20.729-13.541 44.917-20.854 69.729-20.854 24.854 0 49.063 7.313 69.772 20.854 5.707-0.999 11.458-1.499 17.291-1.499 54.937 0 99.625 44.708 99.625 99.666-0.002 53.396-42.19 97.125-94.96 99.584zM412.375 146.667c-8.312 0-16.375 1.499-24 4.417-17.5-15.25-39.75-23.772-63.063-23.772-23.249 0-45.499 8.522-62.999 23.772-7.625-2.918-15.75-4.417-24-4.417-37.312 0-67.688 30.375-67.688 67.666 0 37.313 30.375 67.688 67.688 67.688 3.188 0 6.375-0.229 9.521-0.688 18.104 24.583 46.541 39.354 77.478 39.354 30.938 0 59.438-14.771 77.501-39.354 3.125 0.458 6.312 0.688 9.562 0.688 37.312 0 67.625-30.375 67.625-67.688 0-37.291-30.312-67.666-67.625-67.666zM144 128h-128c-8.833 0-16-7.167-16-16s7.167-16 16-16h128c8.833 0 16 7.167 16 16s-7.167 16-16 16zM16 160h64c8.833 0 16 7.167 16 16s-7.167 16-16 16h-64c-8.833 0-16-7.167-16-16s7.167-16 16-16zM48 224h64c8.833 0 16 7.167 16 16s-7.167 16-16 16h-64c-8.833 0-16-7.167-16-16s7.167-16 16-16z" />
<glyph unicode="&#xe76e;" d="M417.042 409.208c-23.98 24.563-57.125 38.792-91.73 38.792-34.562 0-67.688-14.229-91.665-38.792-52.813-2.438-95.021-46.167-95.021-99.542 0-54.978 44.709-99.708 99.688-99.708 5.834 0 11.604 0.501 17.271 1.5 20.729-13.521 44.917-20.833 69.729-20.833 24.854 0 49.063 7.312 69.772 20.833 5.707-0.999 11.458-1.5 17.291-1.5 54.938 0 99.625 44.73 99.625 99.708-0.002 53.376-42.19 97.126-94.96 99.542zM412.375 241.958c-8.312 0-16.375 1.5-24 4.458-17.5-15.25-39.75-23.792-63.063-23.792-23.249 0-45.499 8.542-62.999 23.792-7.625-2.959-15.75-4.458-24-4.458-37.312 0-67.688 30.375-67.688 67.708 0 37.292 30.375 67.667 67.688 67.667 3.188 0 6.375-0.25 9.521-0.688 18.104 24.584 46.541 39.355 77.478 39.355 30.938 0 59.438-14.771 77.501-39.354 3.125 0.438 6.312 0.688 9.562 0.688 37.312 0 67.625-30.375 67.625-67.667 0-37.334-30.312-67.709-67.625-67.709zM144 223.312h-128c-8.833 0-16-7.146-16-16 0-8.853 7.167-16 16-16h128c8.833 0 16 7.147 16 16 0 8.854-7.167 16-16 16zM16 255.312h64c8.833 0 16 7.146 16 16s-7.167 16-16 16h-64c-8.833 0-16-7.146-16-16s7.167-16 16-16zM48 319.312h64c8.833 0 16 7.146 16 16s-7.167 16-16 16h-64c-8.833 0-16-7.146-16-16s7.167-16 16-16zM224 96c0-17.688 14.312-32 32-32s32 14.312 32 32-32 64-32 64-32-46.312-32-64zM352 32c0-17.688 14.312-32 32-32s32 14.312 32 32-32 64-32 64-32-46.312-32-64z" />
<glyph unicode="&#xe76f;" d="M326.042 36.312l-18 10.376c0.542 3.124 0.958 6.311 0.958 9.624 0 3.312-0.416 6.5-1 9.625l18.042 10.396c8.417 4.917 11.291 15.729 6.458 24.104-4.876 8.479-15.667 11.375-24.125 6.5l-18.188-10.5c-4.876 4.146-10.375 7.396-16.5 9.604v20.896c0 9.771-7.938 17.688-17.688 17.688s-17.666-7.917-17.666-17.688v-20.875c-6.126-2.188-11.646-5.479-16.521-9.625l-18.146 10.5c-8.479 4.875-19.292 2-24.167-6.479-4.875-8.417-1.938-19.25 6.5-24.126l17.959-10.375c-0.584-3.146-0.959-6.334-0.959-9.646 0-3.313 0.375-6.5 0.959-9.624l-17.958-10.375c-8.459-4.875-11.375-15.75-6.5-24.188s15.688-11.312 24.125-6.438l18.167 10.438c4.874-4.125 10.396-7.375 16.542-9.562v-20.938c0-9.749 7.916-17.624 17.666-17.624s17.688 7.875 17.688 17.624v20.938c6.125 2.188 11.688 5.438 16.521 9.625l18.167-10.5c8.458-4.875 19.249-2 24.125 6.438 4.874 8.437 1.999 19.25-6.459 24.187zM256 38.625c-9.75 0-17.688 7.938-17.688 17.688s7.938 17.646 17.688 17.646 17.667-7.896 17.667-17.646-7.917-17.688-17.667-17.688zM400 416c-5.312 0-10.562-0.375-15.792-1.125-29.874 40.708-77.020 65.125-128.208 65.125s-98.312-24.417-128.208-65.125c-5.23 0.75-10.48 1.125-15.792 1.125-61.75 0-112-50.25-112-112s50.25-112 112-112c13.688 0 27.084 2.5 39.709 7.333 28.957-25.25 65.791-39.333 104.291-39.333 38.542 0 75.333 14.083 104.291 39.333 12.625-4.833 26.021-7.333 39.709-7.333 61.75 0 112 50.25 112 112s-50.25 112-112 112zM400 224c-17.125 0-32.916 5.5-45.938 14.667-23.478-28.292-58.438-46.667-98.062-46.667-39.625 0-74.584 18.375-98.062 46.667-13-9.167-28.813-14.667-45.938-14.667-44.188 0-80 35.812-80 80s35.812 80 80 80c10.812 0 21.062-2.208 30.438-6.083 21.229 41.416 63.853 70.083 113.562 70.083s92.334-28.667 113.541-70.083c9.397 3.875 19.668 6.083 30.459 6.083 44.188 0 80-35.812 80-80s-35.812-80-80-80z" />
<glyph unicode="&#xe770;" d="M326.042 132.312l-18 10.375c0.542 3.125 0.958 6.312 0.958 9.625 0 3.312-0.416 6.5-1 9.625l18.042 10.396c8.417 4.917 11.291 15.729 6.458 24.104-4.876 8.479-15.667 11.375-24.125 6.5l-18.188-10.5c-4.877 4.146-10.375 7.396-16.5 9.604v20.896c0 9.771-7.938 17.688-17.688 17.688s-17.666-7.917-17.666-17.688v-20.875c-6.126-2.188-11.646-5.479-16.521-9.625l-18.146 10.5c-8.479 4.875-19.292 2-24.167-6.479-4.875-8.417-1.938-19.25 6.5-24.126l17.959-10.375c-0.584-3.146-0.959-6.334-0.959-9.646s0.375-6.5 0.959-9.623l-17.958-10.376c-8.459-4.875-11.375-15.75-6.5-24.188s15.688-11.312 24.125-6.438l18.167 10.438c4.874-4.125 10.396-7.375 16.542-9.562v-20.938c0-9.749 7.916-17.624 17.666-17.624s17.688 7.875 17.688 17.624v20.938c6.125 2.188 11.688 5.438 16.521 9.625l18.167-10.5c8.458-4.875 19.249-2 24.125 6.438 4.874 8.437 1.999 19.25-6.459 24.187zM256 134.625c-9.75 0-17.688 7.938-17.688 17.688s7.938 17.646 17.688 17.646 17.667-7.896 17.667-17.646-7.917-17.688-17.667-17.688zM400 416c-5.312 0-10.562-0.375-15.792-1.125-29.874 40.708-77.020 65.125-128.208 65.125-51.188 0-98.312-24.417-128.208-65.125-5.23 0.75-10.48 1.125-15.792 1.125-61.75 0-112-50.25-112-112s50.25-112 112-112c11.812 0 23.334 2.208 34.438 5.834 1.062 5.082 2.729 10.041 5.375 14.645 3.938 6.854 9.562 12.312 16 16.502-3.312 3.229-6.938 6.104-9.875 9.688-13-9.169-28.813-14.669-45.938-14.669-44.188 0-80 35.812-80 80 0 44.188 35.812 80 80 80 10.812 0 21.062-2.208 30.438-6.083 21.229 41.416 63.853 70.083 113.562 70.083s92.334-28.667 113.541-70.083c9.397 3.875 19.668 6.083 30.459 6.083 44.188 0 80-35.812 80-80 0-44.188-35.812-80-80-80-17.125 0-32.916 5.5-45.938 14.667-2.938-3.583-6.604-6.459-9.896-9.688 6.459-4.207 12.125-9.688 16.042-16.562 2.708-4.646 4.354-9.584 5.416-14.583 11.064-3.626 22.564-5.834 34.376-5.834 61.75 0 112 50.25 112 112s-50.25 112-112 112z" />
<glyph unicode="&#xe771;" d="M326.042 36.312l-18 10.376c0.542 3.124 0.958 6.311 0.958 9.624 0 3.312-0.416 6.5-1 9.625l18.042 10.396c8.417 4.917 11.291 15.729 6.458 24.104-4.876 8.479-15.667 11.375-24.125 6.5l-18.188-10.5c-4.876 4.146-10.375 7.396-16.5 9.604v20.896c0 9.771-7.938 17.688-17.688 17.688s-17.666-7.917-17.666-17.688v-20.875c-6.126-2.188-11.646-5.479-16.521-9.625l-18.146 10.5c-8.479 4.875-19.292 2-24.167-6.479-4.875-8.417-1.938-19.25 6.5-24.126l17.959-10.375c-0.584-3.146-0.959-6.334-0.959-9.646 0-3.313 0.375-6.5 0.959-9.624l-17.958-10.375c-8.459-4.875-11.375-15.75-6.5-24.188s15.688-11.312 24.125-6.438l18.167 10.438c4.874-4.125 10.396-7.375 16.542-9.562v-20.938c0-9.749 7.916-17.624 17.666-17.624s17.688 7.875 17.688 17.624v20.938c6.125 2.188 11.688 5.438 16.521 9.625l18.167-10.5c8.458-4.875 19.249-2 24.125 6.438 4.874 8.437 1.999 19.25-6.459 24.187zM256 38.625c-9.75 0-17.688 7.938-17.688 17.688s7.938 17.646 17.688 17.646 17.667-7.896 17.667-17.646-7.917-17.688-17.667-17.688zM474.166 83.75l-12.083 3.208c-0.291 3.833-1.208 7.479-2.896 10.979l8.771 8.771c4.125 4.125 4.104 10.792 0 14.854-4.083 4.104-10.708 4.125-14.833 0l-8.791-8.75c-3.459 1.625-7.146 2.562-10.959 2.875l-3.209 12.062c-1.499 5.583-7.25 8.938-12.874 7.438-5.604-1.521-8.875-7.271-7.417-12.875l3.209-11.896c-1.584-1.084-3.084-2.292-4.5-3.667-1.375-1.417-2.542-2.916-3.626-4.459l-11.896 3.209c-5.604 1.499-11.396-1.876-12.896-7.438-1.499-5.625 1.876-11.354 7.417-12.875l12-3.229c0.334-3.771 1.292-7.458 2.979-10.959l-8.812-8.812c-4.083-4.104-4.062-10.729 0.042-14.812 4.083-4.083 10.708-4.125 14.792-0.042l8.832 8.833c3.459-1.707 7.168-2.666 11.001-2.957l3.166-12.021c1.542-5.604 7.25-8.938 12.876-7.438 5.583 1.5 8.957 7.249 7.458 12.917l-3.209 11.896c1.5 1.062 3.042 2.25 4.459 3.625 1.375 1.396 2.542 2.938 3.624 4.479l11.917-3.209c5.604-1.5 11.375 1.854 12.854 7.417 1.5 5.585-1.812 11.334-7.396 12.876zM438.312 77.062c-4.125-4.125-10.771-4.104-14.875 0-4.062 4.062-4.104 10.729 0 14.854 4.104 4.083 10.771 4.083 14.875 0 4.063-4.104 4.063-10.791 0-14.854zM118.938 137.5l-11.875-3.188c-1.104 1.5-2.25 3.021-3.646 4.438-1.416 1.375-2.916 2.562-4.479 3.625l3.188 11.938c1.5 5.604-1.834 11.375-7.375 12.854-5.625 1.5-11.375-1.834-12.875-7.417l-3.25-12.062c-3.812-0.312-7.458-1.25-10.938-2.896l-8.812 8.771c-4.125 4.125-10.75 4.104-14.834 0-4.104-4.104-4.104-10.75 0-14.854l8.771-8.771c-1.646-3.5-2.604-7.188-2.896-10.979l-12.042-3.208c-5.625-1.542-8.959-7.25-7.458-12.875 1.521-5.583 7.271-8.875 12.896-7.417l11.875 3.23c1.062-1.604 2.25-3.105 3.688-4.501 1.375-1.375 2.875-2.604 4.438-3.625l-3.188-11.896c-1.5-5.625 1.834-11.417 7.416-12.917 5.626-1.5 11.334 1.833 12.834 7.438l3.25 12c3.812 0.312 7.5 1.271 11 2.938l8.791-8.792c4.084-4.124 10.709-4.041 14.834 0.042 4.062 4.062 4.125 10.708 0 14.812l-8.812 8.812c1.688 3.46 2.688 7.188 2.938 11.001l12.062 3.188c5.562 1.521 8.896 7.25 7.396 12.875-1.501 5.56-7.251 8.894-12.897 7.436zM88.562 109.042c-4.104-4.104-10.75-4.104-14.875 0-4.062 4.083-4.062 10.771 0 14.833 4.125 4.083 10.771 4.083 14.875 0s4.063-10.75 0-14.833zM512 304c0 61.75-50.25 112-112 112-5.312 0-10.562-0.375-15.792-1.125-29.874 40.708-77.020 65.125-128.208 65.125s-98.312-24.417-128.208-65.125c-5.23 0.75-10.48 1.125-15.792 1.125-61.75 0-112-50.25-112-112s50.25-112 112-112c13.688 0 27.084 2.5 39.709 7.333 28.957-25.25 65.791-39.333 104.291-39.333 38.542 0 75.333 14.083 104.291 39.333 12.625-4.833 26.021-7.333 39.709-7.333 61.75 0 112 50.25 112 112zM354.062 238.667c-23.478-28.292-58.438-46.667-98.062-46.667-39.625 0-74.584 18.375-98.062 46.667-13-9.167-28.813-14.667-45.938-14.667-44.188 0-80 35.812-80 80s35.812 80 80 80c10.812 0 21.062-2.208 30.438-6.083 21.229 41.416 63.853 70.083 113.562 70.083s92.334-28.667 113.541-70.083c9.397 3.875 19.668 6.083 30.459 6.083 44.188 0 80-35.812 80-80s-35.812-80-80-80c-17.125 0-32.916 5.5-45.938 14.667z" />
<glyph unicode="&#xe772;" d="M400 416c-5.312 0-10.562-0.375-15.792-1.125-29.874 40.708-77.020 65.125-128.208 65.125s-98.312-24.417-128.208-65.125c-5.23 0.75-10.48 1.125-15.792 1.125-61.75 0-112-50.25-112-112s50.25-112 112-112c13.688 0 27.084 2.5 39.709 7.333 28.957-25.25 65.791-39.333 104.291-39.333 38.542 0 75.333 14.083 104.291 39.333 12.625-4.833 26.021-7.333 39.709-7.333 61.75 0 112 50.25 112 112s-50.25 112-112 112zM400 224c-9.709 0-19.209 1.75-28.25 5.208l-18 6.917-14.5-12.667c-23.25-20.291-52.812-31.458-83.25-31.458s-60 11.167-83.25 31.458l-14.5 12.667-18-6.917c-9-3.458-18.541-5.208-28.25-5.208-44.125 0-80 35.896-80 80s35.875 80 80 80c3.792 0 7.5-0.271 11.25-0.792l18.958-2.75 11.354 15.458c24.313 33.105 61.647 52.084 102.438 52.084 40.812 0 78.125-18.958 102.417-52.063l11.375-15.479 18.999 2.75c3.709 0.521 7.417 0.792 11.209 0.792 44.125 0 80-35.896 80-80s-35.875-80-80-80zM96 160c-17.688 0-32-14.312-32-32s14.312-32 32-32 32 14.312 32 32-14.312 32-32 32zM256 128c-17.688 0-32-14.312-32-32s14.312-32 32-32 32 14.312 32 32-14.312 32-32 32zM416 160c-17.688 0-32-14.312-32-32s14.312-32 32-32 32 14.312 32 32-14.312 32-32 32zM352 32c-17.688 0-32-14.312-32-32s14.312-32 32-32 32 14.312 32 32-14.312 32-32 32zM160 32c-17.688 0-32-14.312-32-32s14.312-32 32-32 32 14.312 32 32-14.312 32-32 32z" />
<glyph unicode="&#xe773;" d="M512 239.999c0 49.167-40 89.146-89.167 89.146-2.396 0-4.771-0.104-7.146-0.291-23.125 28.854-57.979 45.978-95.688 45.978-37.688 0-72.562-17.124-95.688-45.979-2.375 0.188-4.771 0.291-7.188 0.291-49.123 0.001-89.123-39.978-89.123-89.145 0-5.146 0.688-10.104 1.5-15.042-0.542-0.708-1.188-1.354-1.708-2.083-5.229 0.75-10.479 1.125-15.792 1.125-61.75 0-112-50.249-112-111.999 0-61.751 50.25-112 112-112 13.688 0 27.084 2.5 39.709 7.333 28.957-25.25 65.791-39.333 104.291-39.333 38.542 0 75.333 14.083 104.291 39.333 12.625-4.833 26.021-7.333 39.709-7.333 61.75 0 112 50.249 112 112 0 25.688-9.042 49.083-23.666 67.999 14.582 15.896 23.666 36.833 23.666 60zM400 32c-17.125 0-32.916 5.499-45.938 14.666-23.479-28.291-58.438-46.666-98.062-46.666-39.625 0-74.584 18.375-98.062 46.666-13-9.167-28.812-14.666-45.938-14.666-44.188 0-80 35.812-80 80s35.812 79.999 80 79.999c10.812 0 21.062-2.188 30.438-6.062 0.562 1.062 1.25 2 1.812 3.021 5.625 10.271 12.562 19.688 20.666 28.042 23.084 23.916 55.167 39 91.084 39 49.709 0 92.334-28.666 113.541-70.062 5.646 2.312 11.668 3.813 17.875 4.812l12.584 1.25c12.334 0 23.875-3.042 34.312-8 11.312-5.416 21.021-13.374 28.646-23.188 10.5-13.521 17.042-30.354 17.042-48.812 0-44.188-35.812-80-80-80zM465.562 202.375c-18.479 13.458-41 21.624-65.562 21.624-5.312 0-10.562-0.375-15.792-1.125-29.874 40.708-77.021 65.125-128.208 65.125-34.125 0-66.312-11.042-92.938-30.334 7.479 22.854 28.729 39.479 54.062 39.479 7.75 0 15.062-1.562 21.75-4.332 15.188 29.562 45.625 50.020 81.125 50.020s65.958-20.457 81.084-50.020c6.729 2.77 14.083 4.332 21.749 4.332 31.584 0 57.167-25.583 57.167-57.146 0.001-14.478-5.561-27.54-14.437-37.623z" />
<glyph unicode="&#xe774;" d="M512 345.167c0 49.146-40 89.124-89.167 89.124-2.396 0-4.771-0.083-7.146-0.27-23.125 28.833-57.978 45.979-95.687 45.979-37.688 0-72.562-17.146-95.688-45.979-2.375 0.187-4.771 0.27-7.188 0.27-49.124 0-89.124-39.979-89.124-89.124 0-5.146 0.688-10.125 1.5-15.042-0.542-0.708-1.188-1.354-1.708-2.083-5.229 0.75-10.479 1.125-15.792 1.125-61.75 0-112-50.25-112-112 0-61.751 50.25-112 112-112 13.688 0 27.084 2.499 39.709 7.333 18.354-16 40.104-26.938 63.207-33.208l-22.916-15.292 32-32-32-64 96 64-32 32 4.812 9.583c36.75 1.125 71.75 14.729 99.479 38.917 12.625-4.834 26.021-7.333 39.709-7.333 61.75 0 112 50.249 112 112 0 25.666-9.042 49.083-23.666 68 14.582 15.875 23.666 36.812 23.666 60zM400 137.167c-17.125 0-32.916 5.5-45.938 14.646-19-22.896-45.75-38.729-76.229-44.125l-23.771-2.312c-38.812 0.624-73.062 18.624-96.124 46.436-13-9.146-28.812-14.646-45.938-14.646-44.188 0-80 35.791-80 80 0 44.167 35.812 80 80 80 10.812 0 21.062-2.209 30.438-6.083 0.562 1.083 1.25 2 1.812 3.042 5.625 10.271 12.562 19.667 20.666 28.042 23.084 23.896 55.167 39 91.084 39 49.709 0 92.334-28.667 113.541-70.083 5.646 2.333 11.668 3.833 17.875 4.833l12.584 1.25c12.334 0 23.875-3.042 34.312-8 11.312-5.417 21.021-13.375 28.646-23.208 10.5-13.521 17.042-30.334 17.042-48.792 0-44.209-35.812-80-80-80zM465.562 307.542c-18.479 13.438-41 21.625-65.562 21.625-5.312 0-10.562-0.375-15.792-1.125-29.874 40.687-77.020 65.125-128.208 65.125-34.125 0-66.312-11.062-92.938-30.354 7.479 22.853 28.729 39.478 54.062 39.478 7.75 0 15.062-1.562 21.75-4.333 15.188 29.584 45.626 50.042 81.126 50.042s65.958-20.458 81.084-50.042c6.729 2.771 14.083 4.333 21.749 4.333 31.584 0 57.167-25.583 57.167-57.124 0-14.5-5.562-27.563-14.438-37.625z" />
<glyph unicode="&#xe775;" d="M192 96l32-32-32-96 96 96-32 32 32 64-96-64zM512 345.167c0 49.146-40 89.124-89.167 89.124-2.396 0-4.771-0.083-7.146-0.27-23.125 28.833-57.978 45.979-95.687 45.979-37.688 0-72.562-17.146-95.688-45.979-2.375 0.187-4.771 0.27-7.188 0.27-49.124 0-89.124-39.979-89.124-89.124 0-5.146 0.688-10.125 1.5-15.042-0.542-0.708-1.188-1.354-1.708-2.083-5.229 0.75-10.479 1.125-15.792 1.125-61.75 0-112-50.25-112-112 0-61.751 50.25-112 112-112 13.688 0 27.084 2.499 39.709 7.333 1.104-0.959 2.416-1.625 3.541-2.562l28.312 18.875c-9.438 6.688-18.25 14.125-25.625 23-13-9.146-28.812-14.646-45.938-14.646-44.188 0-80 35.791-80 80 0 44.167 35.812 80 80 80 10.812 0 21.062-2.209 30.438-6.083 0.562 1.083 1.25 2 1.812 3.042 5.625 10.271 12.562 19.667 20.666 28.042 23.084 23.896 55.167 39 91.084 39 49.709 0 92.334-28.667 113.541-70.083 5.646 2.333 11.668 3.833 17.875 4.833l12.584 1.25c12.334 0 23.875-3.042 34.312-8 11.312-5.417 21.021-13.375 28.646-23.208 10.5-13.521 17.042-30.334 17.042-48.792 0-44.209-35.812-80-80-80-17.125 0-32.916 5.5-45.938 14.646-14-16.875-32.438-29.562-53.146-37.562l-5.979-11.938 18.25-18.25c17.062 6.646 33.021 16.188 47.104 28.438 12.625-4.834 26.021-7.333 39.709-7.333 61.75 0 112 50.249 112 112 0 25.666-9.042 49.083-23.666 68 14.583 15.873 23.667 36.81 23.667 59.998zM465.562 307.542c-18.479 13.438-41 21.625-65.562 21.625-5.312 0-10.562-0.375-15.792-1.125-29.874 40.687-77.020 65.125-128.208 65.125-34.125 0-66.312-11.062-92.938-30.354 7.479 22.853 28.729 39.478 54.062 39.478 7.75 0 15.062-1.562 21.75-4.333 15.188 29.584 45.626 50.042 81.126 50.042s65.958-20.458 81.084-50.042c6.729 2.771 14.083 4.333 21.749 4.333 31.584 0 57.167-25.583 57.167-57.124 0-14.5-5.562-27.563-14.438-37.625z" />
<glyph unicode="&#xe776;" d="M256 336c-61.75 0-112-50.25-112-112 0-61.749 50.25-112 112-112s112 50.251 112 112c0 61.75-50.25 112-112 112zM256 368c8.833 0 16 7.146 16 16v32c0 8.833-7.167 16-16 16-8.854 0-16-7.167-16-16v-32c0-8.854 7.146-16 16-16zM256 80c-8.854 0-16-7.167-16-16v-32c0-8.854 7.146-16 16-16 8.833 0 16 7.146 16 16v32c0 8.833-7.167 16-16 16zM380.417 325.833l22.625 22.625c6.25 6.25 6.25 16.375 0 22.625-6.251 6.25-16.375 6.25-22.625 0l-22.625-22.625c-6.251-6.25-6.251-16.375 0-22.625 6.25-6.249 16.374-6.249 22.625 0zM131.541 122.146l-22.623-22.625c-6.252-6.25-6.252-16.376 0-22.625 6.249-6.25 16.373-6.25 22.623 0l22.625 22.625c6.251 6.291 6.251 16.375 0 22.625-6.249 6.25-16.374 6.292-22.625 0zM112 224c0 8.833-7.167 16-16 16h-32c-8.854 0-16-7.167-16-16 0-8.854 7.146-16 16-16h32c8.833 0 16 7.146 16 16zM448 240h-32c-8.854 0-16-7.167-16-16 0-8.854 7.146-16 16-16h32c8.833 0 16 7.146 16 16 0 8.833-7.167 16-16 16zM131.521 325.833c6.249-6.25 16.375-6.25 22.625 0 6.249 6.25 6.249 16.375 0 22.625l-22.625 22.625c-6.25 6.25-16.376 6.25-22.625 0-6.25-6.25-6.25-16.375 0-22.625l22.625-22.625zM380.459 122.188c-6.293 6.25-16.376 6.25-22.625 0-6.25-6.249-6.293-16.375 0-22.625l22.625-22.625c6.249-6.249 16.374-6.249 22.625 0 6.249 6.25 6.249 16.376 0 22.625l-22.625 22.625z" />
<glyph unicode="&#xe777;" d="M248.082 216.068c-31.52 31.542-39.979 77.105-26.020 116.542-15.25-5.395-29.668-13.833-41.854-26.020-43.751-43.75-43.751-114.667 0-158.395 43.729-43.73 114.625-43.752 158.374 0 12.229 12.186 20.646 26.604 26.021 41.854-39.415-13.959-84.999-5.5-116.521 26.019z" />
<glyph unicode="&#xe778;" d="M208 416c8.833 0 16 7.167 16 16v32c0 8.833-7.167 16-16 16s-16-7.167-16-16v-32c0-8.833 7.167-16 16-16zM332.438 373.833l22.625 22.625c6.249 6.25 6.249 16.375 0 22.625-6.25 6.25-16.375 6.25-22.625 0l-22.625-22.625c-6.25-6.25-6.25-16.375 0-22.625 6.249-6.25 16.375-6.25 22.625 0zM16 256h32c8.833 0 16 7.167 16 16s-7.167 16-16 16h-32c-8.833 0-16-7.167-16-16s7.167-16 16-16zM352 272c0-8.833 7.167-16 16-16h32c8.833 0 16 7.167 16 16s-7.167 16-16 16h-32c-8.833 0-16-7.167-16-16zM83.541 373.833c6.251-6.25 16.376-6.25 22.625 0 6.251 6.25 6.251 16.375 0 22.625l-22.625 22.625c-6.25 6.25-16.374 6.25-22.625 0-6.25-6.25-6.25-16.375 0-22.625l22.625-22.625zM400 224c-5.312 0-10.562-0.375-15.792-1.125-16.771 22.875-39.124 40.333-64.458 51.5-1.291 60.625-50.812 109.625-111.75 109.625-61.75 0-112-50.25-112-112 0-17.438 4.334-33.75 11.5-48.438-59.625-2.437-107.5-51.374-107.5-111.562 0-61.75 50.25-112 112-112 13.688 0 27.084 2.5 39.709 7.333 28.957-25.25 65.791-39.333 104.291-39.333 38.542 0 75.333 14.083 104.291 39.333 12.625-4.833 26.021-7.333 39.709-7.333 61.75 0 112 50.25 112 112s-50.25 112-112 112zM256 288c-45.938 0-88.5-19.812-118.375-53.25-5.937 11.167-9.625 23.708-9.625 37.25 0 44.188 35.812 80 80 80 39.812 0 72.562-29.167 78.708-67.25-10.020 2-20.249 3.25-30.708 3.25z" />
<glyph unicode="&#xe779;" d="M435.062 217.834c4.875 3.625 9.812 7.187 14.229 11.604 13.208 13.229 23.271 29.333 29.792 47.854 2.083 5.792 0.604 12.292-3.772 16.625-4.354 4.375-10.812 5.854-16.623 3.792-35.396-12.5-73.688-4-99.896 22.25-26.249 26.25-34.791 64.521-22.249 99.896 2.042 5.812 0.583 12.271-3.792 16.646-4.333 4.333-10.812 5.833-16.625 3.791-18.542-6.583-34.625-16.625-47.834-29.833-33.541-33.5-43.979-81-32.479-123.792-43.25-5.521-82.125-28.5-108.021-63.792-5.229 0.75-10.479 1.125-15.792 1.125-61.75 0-112-50.249-112-112 0-61.75 50.25-112 112-112 13.688 0 27.084 2.501 39.709 7.334 28.956-25.25 65.79-39.334 104.29-39.334 38.542 0 75.333 14.084 104.291 39.334 12.625-4.833 26.021-7.334 39.709-7.334 61.75 0 112 50.25 112 112 0.001 49.438-32.416 91.021-76.937 105.834zM290.916 387.833c2.542 2.583 5.271 4.979 8.146 7.229-2.25-35.979 10.729-71.375 37.104-97.729 26.376-26.375 61.771-39.333 97.751-37.104-13.792-17.584-32.792-28.521-53.126-33.188-27.375 34.75-67.604 56.624-111.958 60.187-12.271 33.959-5.083 73.439 22.083 100.605z" />
<glyph unicode="&#xe77a;" d="M400 320c-5.312 0-10.562-0.375-15.792-1.125-29.874 40.708-77.020 65.125-128.208 65.125s-98.312-24.417-128.208-65.125c-5.23 0.75-10.48 1.125-15.792 1.125-61.75 0-112-50.25-112-112 0-61.75 50.25-112 112-112 13.688 0 27.084 2.5 39.709 7.333 28.957-25.25 65.791-39.333 104.291-39.333 38.542 0 75.333 14.083 104.291 39.333 12.625-4.833 26.021-7.333 39.709-7.333 61.75 0 112 50.25 112 112 0 61.75-50.25 112-112 112z" />
<glyph unicode="&#xe77b;" d="M400 416c-5.312 0-10.562-0.375-15.792-1.125-29.874 40.708-77.020 65.125-128.208 65.125-51.188 0-98.312-24.417-128.208-65.125-5.23 0.75-10.48 1.125-15.792 1.125-61.75 0-112-50.25-112-112s50.25-112 112-112c13.688 0 27.084 2.5 39.709 7.333 21.541-18.771 47.416-31.291 75.104-36.521l-34.813-34.812 32-32-32-96 96 96-32 32 11 32.999c34.458 2.438 67.125 15.543 93.291 38.334 12.625-4.833 26.021-7.333 39.709-7.333 61.75 0 112 50.25 112 112s-50.25 112-112 112z" />
<glyph unicode="&#xe77c;" d="M400 384c-5.312 0-10.562-0.375-15.792-1.125-29.874 40.708-77.020 65.125-128.208 65.125s-98.312-24.417-128.208-65.125c-5.23 0.75-10.48 1.125-15.792 1.125-61.75 0-112-50.25-112-112 0-61.75 50.25-112 112-112 13.688 0 27.084 2.5 39.709 7.333 28.957-25.25 65.791-39.333 104.291-39.333 38.542 0 75.333 14.083 104.291 39.333 12.625-4.833 26.021-7.333 39.709-7.333 61.75 0 112 50.25 112 112 0 61.75-50.25 112-112 112zM224 32c0-17.688 14.312-32 32-32s32 14.312 32 32-32 64-32 64-32-46.312-32-64z" />
<glyph unicode="&#xe77d;" d="M400 416c-5.312 0-10.562-0.375-15.792-1.125-29.874 40.708-77.020 65.125-128.208 65.125s-98.312-24.417-128.208-65.125c-5.23 0.75-10.48 1.125-15.792 1.125-61.75 0-112-50.25-112-112s50.25-112 112-112c13.688 0 27.084 2.5 39.709 7.333 28.957-25.25 65.791-39.333 104.291-39.333 38.542 0 75.333 14.083 104.291 39.333 12.625-4.833 26.021-7.333 39.709-7.333 61.75 0 112 50.25 112 112s-50.25 112-112 112zM225 0c0-17.688 14.312-32 32-32s32 14.312 32 32-32 64-32 64-32-46.312-32-64zM352 32c0-17.688 14.312-32 32-32s32 14.312 32 32-32 64-32 64-32-46.312-32-64zM96 96c0-17.688 14.312-32 32-32s32 14.312 32 32-32 64-32 64-32-46.312-32-64z" />
<glyph unicode="&#xe77e;" d="M417.042 313.917c-23.979 24.542-57.125 38.771-91.73 38.771-34.562 0-67.688-14.229-91.687-38.771-52.812-2.459-95-46.188-95-99.584 0-54.958 44.709-99.666 99.688-99.666 5.812 0 11.604 0.5 17.25 1.499 20.75-13.541 44.938-20.854 69.749-20.854 24.854 0 49.063 7.313 69.772 20.854 5.707-0.999 11.458-1.499 17.291-1.499 54.937 0 99.625 44.708 99.625 99.666 0 53.396-42.188 97.125-94.958 99.584zM144 128h-128c-8.833 0-16-7.167-16-16s7.167-16 16-16h128c8.833 0 16 7.167 16 16s-7.167 16-16 16zM16 160h64c8.833 0 16 7.167 16 16s-7.167 16-16 16h-64c-8.833 0-16-7.167-16-16s7.167-16 16-16zM48 224h64c8.833 0 16 7.167 16 16s-7.167 16-16 16h-64c-8.833 0-16-7.167-16-16s7.167-16 16-16z" />
<glyph unicode="&#xe77f;" d="M417.042 409.208c-23.98 24.563-57.125 38.792-91.73 38.792-34.562 0-67.688-14.229-91.665-38.792-52.813-2.438-95.021-46.167-95.021-99.542 0-54.978 44.709-99.708 99.688-99.708 5.834 0 11.604 0.501 17.271 1.5 20.729-13.521 44.917-20.833 69.729-20.833 24.854 0 49.063 7.312 69.772 20.833 5.707-0.999 11.458-1.5 17.291-1.5 54.937 0 99.625 44.73 99.625 99.708-0.002 53.376-42.19 97.126-94.96 99.542zM144 223.312h-128c-8.833 0-16-7.146-16-16 0-8.853 7.167-16 16-16h128c8.833 0 16 7.147 16 16 0 8.854-7.167 16-16 16zM16 255.312h64c8.833 0 16 7.146 16 16s-7.167 16-16 16h-64c-8.833 0-16-7.146-16-16s7.167-16 16-16zM48 319.312h64c8.833 0 16 7.146 16 16s-7.167 16-16 16h-64c-8.833 0-16-7.146-16-16s7.167-16 16-16zM224 96c0-17.688 14.312-32 32-32s32 14.312 32 32-32 64-32 64-32-46.312-32-64zM352 32c0-17.688 14.312-32 32-32s32 14.312 32 32-32 64-32 64-32-46.312-32-64z" />
<glyph unicode="&#xe780;" d="M326.042 36.312l-18 10.376c0.542 3.124 0.957 6.311 0.957 9.624 0 3.312-0.415 6.5-0.999 9.625l18.042 10.396c8.417 4.917 11.291 15.729 6.458 24.104-4.876 8.479-15.667 11.375-24.125 6.5l-18.188-10.5c-4.876 4.146-10.375 7.396-16.5 9.604v20.896c0 9.771-7.938 17.688-17.688 17.688s-17.667-7.917-17.667-17.688v-20.875c-6.125-2.188-11.646-5.479-16.521-9.625l-18.146 10.5c-8.479 4.875-19.291 2-24.166-6.479-4.875-8.417-1.938-19.25 6.5-24.126l17.959-10.375c-0.584-3.146-0.959-6.334-0.959-9.646 0-3.313 0.375-6.5 0.959-9.624l-17.958-10.375c-8.459-4.875-11.375-15.75-6.5-24.188s15.688-11.312 24.125-6.438l18.167 10.438c4.874-4.125 10.396-7.375 16.541-9.562v-20.938c0-9.749 7.917-17.624 17.667-17.624s17.688 7.875 17.688 17.624v20.938c6.125 2.188 11.688 5.438 16.521 9.625l18.167-10.5c8.458-4.875 19.249-2 24.125 6.438 4.874 8.437 1.999 19.25-6.459 24.187zM256 38.625c-9.75 0-17.688 7.938-17.688 17.688s7.938 17.646 17.688 17.646 17.666-7.896 17.666-17.646-7.916-17.688-17.666-17.688zM400 416c-5.312 0-10.562-0.375-15.792-1.125-29.875 40.708-77.020 65.125-128.208 65.125s-98.312-24.417-128.208-65.125c-5.23 0.75-10.48 1.125-15.792 1.125-61.75 0-112-50.25-112-112s50.25-112 112-112c13.688 0 27.084 2.5 39.709 7.333 28.957-25.25 65.791-39.333 104.291-39.333 38.542 0 75.333 14.083 104.291 39.333 12.625-4.833 26.021-7.333 39.709-7.333 61.75 0 112 50.25 112 112s-50.25 112-112 112z" />
<glyph unicode="&#xe782;" d="M400 416c-5.312 0-10.562-0.375-15.792-1.125-29.874 40.708-77.020 65.125-128.208 65.125s-98.312-24.417-128.208-65.125c-5.23 0.75-10.48 1.125-15.792 1.125-61.75 0-112-50.25-112-112s50.25-112 112-112c13.688 0 27.084 2.5 39.709 7.333 28.957-25.25 65.791-39.333 104.291-39.333 38.542 0 75.333 14.083 104.291 39.333 12.625-4.833 26.021-7.333 39.709-7.333 61.75 0 112 50.25 112 112s-50.25 112-112 112zM96 160c-17.688 0-32-14.312-32-32s14.312-32 32-32 32 14.312 32 32-14.312 32-32 32zM256 128c-17.688 0-32-14.312-32-32s14.312-32 32-32 32 14.312 32 32-14.312 32-32 32zM416 160c-17.688 0-32-14.312-32-32s14.312-32 32-32 32 14.312 32 32-14.312 32-32 32zM352 32c-17.688 0-32-14.312-32-32s14.312-32 32-32 32 14.312 32 32-14.312 32-32 32zM160 32c-17.688 0-32-14.312-32-32s14.312-32 32-32 32 14.312 32 32-14.312 32-32 32z" />
</font>
</defs>
</svg>
